<?xml version="1.0" standalone="no"?>
<!DOCTYPE svg PUBLIC "-//W3C//DTD SVG 1.1//EN" "http://www.w3.org/Graphics/SVG/1.1/DTD/svg11.dtd" >
<svg>
<metadata>
Created by FontForge 20110222 at Mon Mar  7 11:31:25 2011
 By www-data
Copyright (c) 2007 by La Tipomatika. All rights reserved.
</metadata>
<defs>
<font id="NewCicle-Fina" horiz-adv-x="690" >
  <font-face 
    font-family="New Cicle"
    font-weight="400"
    font-stretch="normal"
    units-per-em="1000"
    panose-1="2 0 0 0 0 0 0 0 0 0"
    ascent="800"
    descent="-200"
    x-height="500"
    cap-height="691"
    bbox="-26 -200 1016 865"
    underline-thickness="50"
    underline-position="-50"
    unicode-range="U+0020-2122"
  />
    <missing-glyph />
    <glyph glyph-name="space" unicode=" " horiz-adv-x="257" 
 />
    <glyph glyph-name="space" unicode="&#xa0;" horiz-adv-x="257" 
 />
    <glyph glyph-name="e" unicode="e" horiz-adv-x="456" 
d="M241 33q21 0 42.5 3.5t41 9.5t36.5 14t28 16l17 -39q-24 -18 -62.5 -29t-77.5 -16h-1q-6 -1 -12.5 -1h-13.5q-42 0 -78.5 18.5t-65 51t-46 76t-20.5 93.5v19q0 53 16 100t43 82t63 55.5t77 20.5q42 0 78 -17.5t62.5 -49.5t41.5 -76.5t15 -98.5v-24h-353q2 -42 16.5 -79.5
t37 -66t52.5 -45.5t63 -17zM385 282q-3 40 -16.5 73.5t-34.5 57.5t-48 37.5t-58 13.5q-30 0 -57 -13.5t-48 -37.5t-34.5 -57.5t-16.5 -73.5h313z" />
    <glyph glyph-name="f" unicode="f" horiz-adv-x="328" 
d="M293 652q-7 2 -17 2h-19q-22 -1 -41 -12t-33.5 -30t-22.5 -44t-8 -53v-26h132v-43h-132l1 -446h-39q-1 84 -1 166v280h-76v43h74q1 0 1 7q0 2 -0.5 5.5t-0.5 6.5v7v12q2 34 14 64.5t31.5 53.5t45.5 36.5t55 13.5h24.5t23.5 -2z" />
    <glyph glyph-name="g" unicode="g" horiz-adv-x="551" 
d="M193 115q9 0 18 1.5t23 1.5q42 0 78.5 -12.5t64 -33.5t43 -50t15.5 -62t-15.5 -62t-43 -50.5t-64 -34.5t-78.5 -13q-41 0 -77.5 13t-63.5 34.5t-43 50.5t-16 62q0 45 28.5 81.5t75.5 56.5q-11 19 -11 47q0 17 6 31.5t15 22.5q-35 25 -54.5 59.5t-19.5 74.5
q0 36 15.5 67.5t42.5 55t63 37t78 13.5q22 0 40 -3t35 -8h173l-41 -42h-63q26 -23 40.5 -53t14.5 -67q0 -36 -15.5 -67t-42.5 -54t-63.5 -36.5t-77.5 -13.5q-25 0 -44.5 6t-37.5 6q-11 0 -22 -5.5t-11 -21.5q0 -21 11.5 -26.5t23.5 -5.5zM74 -40q0 -24 13 -46t35 -38.5
t51 -26t61 -9.5q34 0 63.5 9.5t51.5 26t34.5 38.5t12.5 46t-12.5 45.5t-34.5 38t-51.5 26.5t-63.5 10q-32 0 -61 -10t-51 -26.5t-35 -38t-13 -45.5zM115 333q0 -27 12.5 -51t34 -41.5t50 -28t61.5 -10.5q34 0 63 10.5t50.5 28t34 41.5t12.5 51q0 28 -12.5 52.5t-34 42.5
t-50.5 28t-63 10q-33 0 -61.5 -10t-50 -28t-34 -42.5t-12.5 -52.5z" />
    <glyph glyph-name="p" unicode="p" horiz-adv-x="506" 
d="M83 70q21 -10 46 -18q21 -7 47.5 -13t55.5 -7q41 1 77 18.5t63 47t42.5 68.5t15.5 84q0 44 -15.5 83t-42.5 68t-63 45.5t-77 16.5q-32 0 -59 -6.5t-47 -14.5q-24 -9 -43 -20v-352zM83 466q26 17 64.5 28.5t84.5 11.5q50 -1 93.5 -21.5t76 -55t51.5 -81t19 -98.5
q0 -54 -19 -101t-51.5 -82t-76 -55.5t-93.5 -20.5q-44 0 -83 11t-65 28v-225h-41v695h40v-34z" />
    <glyph glyph-name="y" unicode="y" horiz-adv-x="479" 
d="M34 -152q2 -2 4 -3t4 -3h2q5 0 11 -0.5t12 -0.5q35 0 68.5 23.5t51.5 68.5l41 102l-194 471h45l169 -422l166 422h45l-192 -471l-44 -117l-2 -9q-24 -53 -66.5 -81t-89.5 -28q-16 0 -36 5z" />
    <glyph glyph-name="R" unicode="R" horiz-adv-x="474" 
d="M85 347l1 -347h-42l-1 691h198q41 0 76.5 -13.5t62 -36.5t42 -54t15.5 -67t-15.5 -67.5t-42 -55t-62 -37t-76.5 -13.5h-99l306 -347h-54l-307 347h-2zM85 652v-263h156q31 0 59 10t49 27.5t33.5 41.5t12.5 52q0 27 -12.5 51t-33.5 42t-49 28.5t-59 10.5h-2h-154z" />
    <glyph glyph-name="d" unicode="d" horiz-adv-x="503" 
d="M410 425q-21 10 -45 19q-20 7 -47.5 13t-56.5 6q-42 -1 -78.5 -18.5t-63.5 -46t-42.5 -67t-15.5 -81.5q0 -44 15.5 -83.5t42.5 -69t63.5 -47.5t78.5 -19h2q32 0 59 6t47 14q23 9 41 20v354zM410 29q-26 -17 -65 -27t-84 -12q-50 1 -94 21.5t-76.5 55.5t-51.5 82t-19 101
q0 53 19 99t51.5 80.5t76.5 55t94 20.5h2h-2q45 0 83 -9.5t66 -29.5v225h42v-598v-93h-42v29z" />
    <glyph glyph-name="h" unicode="h" horiz-adv-x="455" 
d="M88 693v-264q24 37 59.5 57.5t79.5 20.5q35 0 65.5 -14t53 -39t35.5 -58t14 -71l3 -322h-42v322q-1 30 -12 55.5t-29 44.5t-42.5 30t-51.5 11q-24 0 -46.5 -9.5t-40.5 -26.5t-30 -40t-16 -50l1 -340h-42l-1 693h42z" />
    <glyph glyph-name="i" unicode="i" horiz-adv-x="202" 
d="M85 500h41l1 -500h-41zM77 650q0 11 8.5 19t20.5 8q11 0 20 -8t9 -19t-9 -19t-20 -8q-12 0 -20.5 8t-8.5 19z" />
    <glyph glyph-name="j" unicode="j" horiz-adv-x="354" 
d="M196 645q0 12 7.5 19.5t20.5 7.5q10 0 18 -7.5t8 -19.5q0 -11 -8 -19t-18 -8q-13 0 -20.5 8t-7.5 19zM56 -155q9 -1 17 -2q7 -1 14.5 -1h12.5q22 1 41 12.5t33 30t22 43t8 51.5v522h42v-532q-2 -34 -14 -64t-31.5 -52.5t-44.5 -36t-54 -14.5h-2q-13 0 -25 1.5t-23 2.5z
" />
    <glyph glyph-name="k" unicode="k" horiz-adv-x="440" 
d="M103 334l198 166h64l-159 -132l211 -368h-49l-194 338l-71 -59l1 -279h-43v691h42v-357z" />
    <glyph glyph-name="l" unicode="l" horiz-adv-x="162" 
d="M65 750h42l1 -750h-42z" />
    <glyph glyph-name="m" unicode="m" horiz-adv-x="739" 
d="M83 453v-26q24 37 59.5 57.5t77.5 20.5q53 0 94.5 -31.5t61.5 -79.5q10 30 27 51.5t38 35t44 20t44 6.5q35 0 65.5 -14t53 -38.5t35.5 -58t14 -71.5l2 -323h-42v323q-1 29 -11.5 54.5t-28.5 44.5t-41.5 30t-50.5 11q-25 0 -47.5 -10t-40.5 -27t-30 -39.5t-16 -48.5v-338
h-42v321q-1 30 -11.5 55.5t-28.5 44t-42.5 29.5t-51.5 11q-25 0 -47 -9.5t-40 -26.5t-29.5 -39.5t-15.5 -49.5l1 -338h-42l-1 451v49h42v-47z" />
    <glyph glyph-name="n" unicode="n" horiz-adv-x="433" 
d="M81 429q24 38 60 58.5t79 20.5q35 0 65.5 -14.5t53 -39t36 -58t14.5 -71.5l3 -325h-42l-1 325q-1 30 -10.5 55.5t-26 44.5t-39.5 30t-50 11q-25 0 -49 -9.5t-43.5 -26.5t-32.5 -40t-17 -50l1 -340h-42l-1 500h42v-71z" />
    <glyph glyph-name="o" unicode="o" horiz-adv-x="513" 
d="M64 247q0 -44 15 -83.5t41.5 -68.5t61.5 -46t75 -17q39 0 73.5 17t60 46t40.5 68.5t15 83.5q0 45 -15 84.5t-40.5 69t-60 46.5t-73.5 17q-40 0 -75 -17t-61.5 -46.5t-41.5 -69t-15 -84.5zM22 247q0 54 18.5 101t50.5 82t75 55.5t91 20.5t90 -20.5t73.5 -55.5t50 -82
t18.5 -101q0 -53 -18.5 -99.5t-50 -81.5t-73.5 -55.5t-90 -20.5t-91 20.5t-75 55.5t-50.5 81.5t-18.5 99.5z" />
    <glyph glyph-name="q" unicode="q" horiz-adv-x="515" 
d="M414 500h41v-695h-41v228q-29 -20 -67 -30.5t-84 -10.5h3h-3q-49 1 -92.5 21.5t-76.5 55t-52 81t-19 99.5t19 99.5t52 81.5t76.5 55.5t92.5 20.5q46 0 85.5 -10t65.5 -27v31zM414 425q-20 11 -44 20q-20 8 -47 14t-57 6h-3q-41 0 -77 -17t-63 -46.5t-43 -68.5t-16 -84
t16 -83.5t43 -67.5t63 -46t77 -18q29 0 56.5 5.5t48.5 12.5q25 8 46 19v354z" />
    <glyph glyph-name="r" unicode="r" horiz-adv-x="286" 
d="M261 457q-30 10 -58.5 2.5t-52.5 -26.5t-41 -44.5t-22 -50.5l1 -338h-42l-1 500h42v-73q24 38 59.5 58.5t78.5 20.5q5 0 20 -1.5t21 -3.5z" />
    <glyph glyph-name="s" unicode="s" horiz-adv-x="417" 
d="M340 418q-23 22 -56 33.5t-70 11.5q-51 0 -85.5 -24t-34.5 -62q0 -18 9 -35t25.5 -31.5t39.5 -24.5t50 -14q34 -5 63 -19t50 -33.5t32.5 -44t11.5 -51.5q0 -30 -13 -54t-35.5 -41.5t-52 -27t-62.5 -9.5q-47 0 -90.5 17t-69.5 48l32 25q21 -21 54 -35t71 -14q52 0 88 25
t36 66q0 19 -9 36.5t-25.5 32.5t-39 25.5t-49.5 14.5q-35 5 -64 19t-50 33.5t-33 43.5t-12 50q0 28 13.5 51.5t36.5 40t53 25.5t64 9q47 0 88.5 -17.5t67.5 -44.5z" />
    <glyph glyph-name="t" unicode="t" horiz-adv-x="340" 
d="M167 691v-198h135v-43h-135l1 -450h-40q-1 86 -1 168v282h-76v43h74v198h42z" />
    <glyph glyph-name="u" unicode="u" horiz-adv-x="450" 
d="M355 70q-23 -35 -59 -57t-79 -22q-35 0 -65 14.5t-52.5 39.5t-35.5 58.5t-14 71.5l-3 325h41l2 -325q1 -29 11 -54.5t27 -45t40 -30.5t50 -11q25 0 48.5 10t42 27t31 40t15.5 49v340h42v-452v-48h-41z" />
    <glyph glyph-name="v" unicode="v" horiz-adv-x="500" 
d="M24 500h45l179 -442l178 442h48l-203 -500h-45z" />
    <glyph glyph-name="w" unicode="w" horiz-adv-x="705" 
d="M472 0l-46 3l-78 195l-82 -198l-46 3l-201 497h45l179 -442l80 198l-98 244h48l176 -442l178 442h48z" />
    <glyph glyph-name="x" unicode="x" horiz-adv-x="444" 
d="M37 500h53l128 -206l131 206h52l-155 -249l156 -251h-50l-137 216l-132 -216h-50l157 259z" />
    <glyph glyph-name="z" unicode="z" horiz-adv-x="452" 
d="M45 43l312 414h-309v43h364v-43l-312 -414h312l1 -43h-367z" />
    <glyph glyph-name="A" unicode="A" horiz-adv-x="596" 
d="M410 329l-107 288l-106 -288h213zM286 691h35l256 -691h-44l-108 287h-243l-106 -287h-44z" />
    <glyph glyph-name="B" unicode="B" horiz-adv-x="512" 
d="M257 0h-203l-1 691h42h179q38 -1 71.5 -15t58 -37t39 -53.5t14.5 -64.5q0 -51 -27 -91.5t-72 -63.5q52 -22 82.5 -68t30.5 -102q0 -39 -15 -74t-41.5 -61.5t-62.5 -42t-78 -16.5zM256 651h-161v-262h179q30 1 55.5 11.5t44.5 28t30 41.5t11 51q0 25 -11 48t-30 41
t-44.5 28.5t-55.5 12.5h-18zM274 42q32 1 60.5 14t49.5 34t33 48t12 58q0 30 -12 56.5t-33 47t-49.5 33t-60.5 14.5h-179v-305h161h18z" />
    <glyph glyph-name="C" unicode="C" horiz-adv-x="590" 
d="M529 568v3q-37 38 -84.5 60t-101.5 22q-56 0 -105 -24t-86 -66t-58.5 -98t-21.5 -120q0 -63 20.5 -119.5t56.5 -99t85.5 -67.5t108.5 -25q54 0 100 21.5t84 59.5l28 -28q-42 -45 -96 -70.5t-116 -25.5t-118.5 28t-100 76t-69.5 112.5t-26 137.5q0 70 24.5 133.5t67 111.5
t99.5 76.5t123 28.5q62 0 117.5 -25.5t96.5 -70.5z" />
    <glyph glyph-name="D" unicode="D" horiz-adv-x="575" 
d="M79 649v-607h215v2q41 1 77 25.5t62.5 65.5t42 95.5t15.5 116.5q0 61 -15.5 116t-42.5 96t-63 65t-78 25h-213zM37 691h42h213q50 -1 94 -28t76.5 -73.5t51.5 -109t19 -133.5t-18.5 -133.5t-51 -109t-76 -74t-93.5 -28.5l1 -2h-257z" />
    <glyph glyph-name="E" unicode="E" horiz-adv-x="485" 
d="M391 347h-305v-305h357l1 -42h-399l-1 691h399v-40h-357v-262h305v-42z" />
    <glyph glyph-name="F" unicode="F" horiz-adv-x="487" 
d="M395 347h-305l1 -347h-42l-1 691h399v-39h-357v-263h305v-42z" />
    <glyph glyph-name="G" unicode="G" horiz-adv-x="604" 
d="M556 85q-43 -45 -97.5 -69.5t-117.5 -24.5q-65 0 -122.5 27.5t-100.5 75.5t-68 112t-25 136q0 73 25 137t68 112t100.5 76t122.5 28q63 0 117.5 -25.5t97.5 -70.5l-28 -29q-37 38 -85 60t-102 22q-57 0 -106.5 -24t-87 -66t-59 -98.5t-21.5 -121.5q0 -64 21.5 -120.5
t59 -99t87 -67t106.5 -24.5q50 0 94.5 19.5t78.5 51.5v198h-191v40h233v-252v-3z" />
    <glyph glyph-name="H" unicode="H" horiz-adv-x="558" 
d="M91 347l1 -347h-42l-1 691h42v-302h381v302h42l1 -691h-42l-1 347h-381z" />
    <glyph glyph-name="I" unicode="I" horiz-adv-x="138" 
d="M92 0h-42l-1 691h42z" />
    <glyph glyph-name="J" unicode="J" horiz-adv-x="305" 
d="M244 168q0 -36 -10.5 -68t-28 -56.5t-41 -38.5t-49.5 -14q-23 0 -43.5 11.5t-37.5 30.5l27 29q11 -13 25.5 -21t28.5 -8q18 0 33.5 10t27 27.5t18.5 42t7 53.5v525h43v-523z" />
    <glyph glyph-name="K" unicode="K" horiz-adv-x="583" 
d="M86 691v-376l322 376h57l-258 -300l335 -391h-54l-308 359l-94 -109l1 -250h-42l-1 691h42z" />
    <glyph glyph-name="L" unicode="L" horiz-adv-x="453" 
d="M86 42h337l1 -42h-379l-1 691h42v-649z" />
    <glyph glyph-name="M" unicode="M" horiz-adv-x="623" 
d="M529 691h43l1 -691h-43l-1 610l-212 -365h-26l-215 365l1 -610h-42l-1 691h42l229 -386z" />
    <glyph glyph-name="N" unicode="N" horiz-adv-x="537" 
d="M88 691l358 -607v607h42l1 -691h-42l-359 610l1 -610h-41l-1 691h41z" />
    <glyph glyph-name="O" unicode="O" 
d="M530 570q-35 39 -83.5 60.5t-103.5 21.5q-56 0 -105.5 -24t-86.5 -65.5t-58 -97.5t-21 -120q0 -65 21 -121.5t57.5 -98.5t86 -66.5t106.5 -24.5q58 0 108.5 24.5t87 66.5t57.5 98.5t21 121.5q0 68 -23 125.5t-64 99.5zM561 88q-43 -47 -98.5 -72t-119.5 -25
q-63 0 -120 27t-100 74.5t-68.5 112.5t-25.5 140q0 73 24.5 136.5t67.5 111t100 75t122 27.5q67 0 124.5 -27.5t99.5 -74.5t66 -111t24 -137q0 -78 -25 -143.5t-71 -113.5z" />
    <glyph glyph-name="P" unicode="P" horiz-adv-x="480" 
d="M95 346l1 -346h-42l-1 691h199q40 0 76 -13.5t62 -36.5t41.5 -54t15.5 -66q0 -37 -15.5 -69t-41.5 -55.5t-62 -37t-76 -13.5h-157zM95 651v-263h157q31 0 58.5 10t48.5 28t33 42t12 53q0 27 -12 50.5t-33 41t-48.5 28t-58.5 10.5h-3h-154z" />
    <glyph glyph-name="Q" unicode="Q" horiz-adv-x="665" 
d="M498 581q-34 36 -77 57t-94 21t-97 -22.5t-80.5 -62t-54.5 -92.5t-20 -114q0 -59 19.5 -111t53.5 -91t79.5 -62.5t97.5 -24.5q-2 18 -14.5 30.5t-32.5 11.5v36q35 1 58.5 -20.5t28.5 -55.5q44 9 83 35t68 64t46 86t17 102q0 63 -21.5 118t-59.5 95zM526 133
q-66 -73 -161 -87q4 -32 16.5 -53t29.5 -21q11 0 18.5 6.5t12.5 16.5l28 -24q-13 -17 -27.5 -27.5t-31.5 -10.5q-31 0 -54.5 32t-29.5 77q-58 1 -110.5 27t-92.5 69.5t-63.5 102.5t-23.5 127q0 70 23.5 129.5t63.5 103.5t92.5 69t110.5 25q59 0 112 -25t93 -69.5t63.5 -104
t23.5 -128.5t-25.5 -130t-67.5 -105z" />
    <glyph glyph-name="S" unicode="S" horiz-adv-x="485" 
d="M79 112q24 -36 64 -57.5t93 -21.5q32 0 61.5 10.5t51.5 28.5t35 43t13 54t-11.5 54.5t-32 46t-48 33.5t-59.5 17h-3q-43 4 -79.5 20.5t-63 42t-41.5 58.5t-15 69q0 39 16.5 73t45.5 58.5t68 38.5t83 14q57 0 102 -20t77 -57l-34 -27q-25 30 -62.5 47.5t-82.5 17.5
q-33 0 -63.5 -11t-54 -30t-37.5 -44.5t-14 -55.5q0 -29 12 -55.5t33.5 -47t51 -34t63.5 -16.5q42 -6 77.5 -22.5t61.5 -41.5t40.5 -57t14.5 -67q0 -38 -16.5 -71.5t-44.5 -58t-66 -38.5t-81 -14q-61 0 -110.5 26t-78.5 68z" />
    <glyph glyph-name="T" unicode="T" horiz-adv-x="575" 
d="M310 651l1 -651h-42l-1 651h-226v40h268h225v-40h-225z" />
    <glyph glyph-name="U" unicode="U" horiz-adv-x="598" 
d="M88 173q2 -29 19.5 -54.5t46 -44t66.5 -29.5t81 -11q41 0 78 11t65.5 29.5t45.5 44t19 54.5v518h42v-518q-2 -37 -22 -70t-54 -58t-79 -39.5t-95 -14.5q-52 0 -98 14.5t-80.5 39.5t-55.5 58t-24 70v518h45v-518z" />
    <glyph glyph-name="V" unicode="V" horiz-adv-x="639" 
d="M43 691h44l233 -629l233 629h44l-254 -691h-44z" />
    <glyph glyph-name="W" unicode="W" horiz-adv-x="915" 
d="M610 0h-46l-110 295l-107 -295h-45l-256 691h44l234 -629l108 295l-123 334h44l101 -275l132 -354l232 629h45z" />
    <glyph glyph-name="X" unicode="X" horiz-adv-x="541" 
d="M47 691h47l180 -302l178 302h49l-202 -344l203 -347h-49l-185 312l-182 -312h-47l205 354z" />
    <glyph glyph-name="Y" unicode="Y" horiz-adv-x="681" 
d="M644 691l-283 -378l1 -313h-43l-1 313l-283 378h57l246 -338l250 338h56z" />
    <glyph glyph-name="Z" unicode="Z" horiz-adv-x="548" 
d="M110 42h368l1 -42h-415h-29l404 649h-376v42h415h35z" />
    <glyph glyph-name="braceleft" unicode="{" horiz-adv-x="223" 
d="M149 47q0 -5 17 -5l1 -42q-9 0 -19.5 3.5t-20 9.5t-15.5 14.5t-6 19.5v242q0 20 -12.5 32.5t-31.5 12.5h-20v42h20q19 0 31.5 13t12.5 32v225v2v3q3 18 20.5 29t39.5 11v-43q-17 0 -17 -2v-237q-5 -13 -16.5 -23t-26.5 -10v-42q15 0 26.5 -8.5t16.5 -23.5v-255v0z" />
    <glyph glyph-name="braceright" unicode="}" horiz-adv-x="188" 
d="M48 302q3 15 14 23.5t26 8.5l2 42q-17 0 -28 10t-14 23v237q-3 2 -20 2v43q26 0 41.5 -11.5t18.5 -28.5l2 -3v-2v-225q0 -19 11.5 -32t29.5 -13h21v-42h-21q-18 0 -29.5 -12.5t-11.5 -32.5v-242q0 -20 -20 -33.5t-41 -13.5l-1 42q8 0 13 1.5t7 3.5v255z" />
    <glyph glyph-name="Euro" unicode="&#x20ac;" horiz-adv-x="745" 
d="M711 102q-47 -50 -109 -80.5t-135 -30.5q-59 0 -111.5 20.5t-94.5 56.5t-71.5 85.5t-42.5 107.5h-107v43h100q0 9 -1.5 19t-1.5 19q0 16 1.5 30t3.5 27h-102v42h111q15 55 46 101.5t72.5 80.5t92 53t105.5 19q73 0 135 -30.5t109 -80.5l-31 -31q-42 46 -94.5 72.5
t-118.5 26.5q-47 0 -90.5 -15.5t-79 -43.5t-62.5 -67t-41 -85h343v-42h-352q-5 -28 -5 -57q0 -9 1 -19t1 -19h355v-43h-345q12 -49 38 -90.5t62 -72t81 -47.5t94 -17q66 0 118.5 27t94.5 75z" />
    <glyph glyph-name="quotesinglbase" unicode="&#x201a;" horiz-adv-x="172" 
d="M77 64h48l1 -64l-83 -69l-5 6l40 63z" />
    <glyph glyph-name="comma" unicode="," horiz-adv-x="173" 
d="M77 64h48l1 -64l-83 -69l-5 6l40 63z" />
    <glyph glyph-name="period" unicode="." horiz-adv-x="145" 
d="M42 64h64l1 -64h-64z" />
    <glyph glyph-name="zero" unicode="0" horiz-adv-x="586" 
d="M84 344q0 -65 17 -121.5t45.5 -98.5t67 -66.5t82.5 -24.5t82.5 24.5t67 66.5t45 98.5t16.5 121.5q0 64 -16.5 120.5t-45 98.5t-67 66t-82.5 24t-82.5 -24t-67 -66t-45.5 -98.5t-17 -120.5zM42 344q0 73 20 137t54.5 111.5t81 75t98.5 27.5t98 -27.5t80.5 -75t54 -111.5
t19.5 -137t-19.5 -137t-54 -112t-80.5 -76t-98 -28t-98.5 28t-81 76t-54.5 112t-20 137z" />
    <glyph glyph-name="one" unicode="1" horiz-adv-x="306" 
d="M39 559l159 132h42l1 -691h-42l-1 637l-159 -131v53z" />
    <glyph glyph-name="two" unicode="2" horiz-adv-x="475" 
d="M98 41h349v-41h-387h-18v41l289 325q21 23 33 52t12 62q0 36 -13.5 68t-37.5 55t-56 36.5t-69 13.5q-36 0 -68 -13.5t-55 -36.5l-30 30q30 29 69 45.5t84 16.5t84.5 -17t69 -46t46.5 -68t17 -84q0 -42 -15 -78.5t-42 -65.5z" />
    <glyph glyph-name="three" unicode="3" horiz-adv-x="431" 
d="M43 632q29 31 63.5 46.5t82.5 15.5q43 0 81 -15t66 -40.5t44.5 -60t16.5 -73.5q0 -54 -31.5 -90.5t-81.5 -59.5q25 -12 46.5 -31t37 -43t24 -50.5t8.5 -52.5q0 -37 -17 -69.5t-45.5 -57t-66.5 -38.5t-81 -14q-24 0 -50 7t-49.5 19t-44 28t-33.5 34l30 28q10 -15 27 -28
t37 -23.5t41.5 -16.5t41.5 -6q34 0 64.5 10.5t53 29.5t36 43.5t13.5 53.5q0 27 -12 54t-33 48.5t-49.5 35.5t-60.5 16h-56v42h25q10 0 18.5 0.5t10.5 0.5q32 2 60 11.5t49 26.5t33 40t12 52q0 31 -13 58t-35.5 47t-52.5 31.5t-64 11.5q-40 0 -66.5 -12.5t-49.5 -38.5z" />
    <glyph glyph-name="four" unicode="4" horiz-adv-x="473" 
d="M40 253v40v1h1l228 397l36 -21l-216 -376h233l-1 155h41l1 -155h71v-41h-71v-253h-41v253h-282v0z" />
    <glyph glyph-name="five" unicode="5" horiz-adv-x="504" 
d="M65 352l24 339h353v-42h-311l-24 -224q29 32 72.5 51t90.5 19q46 0 83 -19.5t63 -52.5t39.5 -78t13.5 -96t-17 -96.5t-47 -79.5t-70.5 -53.5t-86.5 -19.5q-54 0 -101 26.5t-76 71.5l29 29q23 -39 61.5 -62t85.5 -23q37 0 70 16t57.5 44t38.5 66t14 81t-10.5 80.5
t-30.5 65t-49.5 43.5t-66.5 16q-52 0 -97 -28t-66 -74h-42z" />
    <glyph glyph-name="six" unicode="6" horiz-adv-x="506" 
d="M473 198q0 -44 -16.5 -81.5t-44.5 -65.5t-66.5 -43.5t-81.5 -15.5q-42 0 -78.5 15.5t-64.5 42t-44.5 63t-18.5 78.5v3q-4 39 -4 80.5v79.5q0 44 2.5 84.5t10.5 78.5q7 37 26 69t46 56t61 38.5t73 15.5q54 0 100.5 -22.5t78.5 -64.5l-42 -26q-23 32 -59 51.5t-77 19.5
q-31 0 -59 -11.5t-51 -31.5t-38.5 -47.5t-21.5 -59.5q-7 -37 -10 -77.5t-3 -84.5q0 -8 0.5 -15t0.5 -15q26 42 69.5 67.5t96.5 27.5q43 0 82 -15t68 -41.5t46.5 -63t18.5 -80.5v-9zM432 205q-1 34 -14.5 63.5t-36 51t-53 34t-64.5 12.5q-35 0 -65.5 -14t-52.5 -37.5
t-34.5 -54.5t-12.5 -65t13.5 -63.5t36.5 -51.5t53 -35t64 -13t64.5 13t53 35.5t35.5 52t13 63.5v9z" />
    <glyph glyph-name="seven" unicode="7" horiz-adv-x="443" 
d="M346 649h-305v42h375l-321 -691h-50z" />
    <glyph glyph-name="eight" unicode="8" horiz-adv-x="459" 
d="M32 191q0 61 31.5 109t80.5 73q-40 22 -65 61.5t-25 87.5q0 36 14 67.5t38 55t56.5 37t68.5 13.5q38 0 71 -13.5t57 -37t38 -55t14 -67.5q0 -48 -24.5 -87.5t-66.5 -61.5q52 -25 82.5 -73t30.5 -109q0 -41 -15.5 -77.5t-43 -63.5t-64.5 -43t-79 -16q-41 0 -77 16t-63 43
t-43 63.5t-16 77.5zM96 522q0 -27 10.5 -50.5t29 -41t43 -28t52.5 -10.5t53 10.5t44 28t29.5 41t10.5 50.5t-10.5 51t-29.5 42t-44 28t-53 10t-52.5 -10t-43 -28t-29 -42t-10.5 -51zM74 191q0 -32 12.5 -60.5t34 -50.5t50 -34.5t60.5 -12.5q33 0 62.5 12.5t51 34.5t34 50.5
t12.5 60.5q0 33 -12.5 62t-34 51t-51 34.5t-62.5 12.5q-32 0 -60.5 -12.5t-50 -34.5t-34 -51t-12.5 -62z" />
    <glyph glyph-name="nine" unicode="9" horiz-adv-x="489" 
d="M38 488q0 43 16.5 80.5t44.5 66t66 45t81 16.5t81 -16t66 -43t44.5 -63.5t18.5 -78.5v-3q3 -41 3 -84v-84q0 -40 -2.5 -78.5t-9.5 -74.5q-8 -39 -28 -72t-49 -56.5t-65.5 -36.5t-76.5 -13q-50 0 -94.5 23t-73.5 59l41 33q24 -34 59.5 -53t74.5 -19q33 0 62 11t52 30.5
t38.5 46.5t22.5 58q5 37 8 76.5t3 81.5v34q-28 -42 -74 -66.5t-103 -24.5q-41 0 -78 15.5t-65 42t-45 62.5t-18 78v7zM78 483q2 -33 15.5 -62t36 -50.5t52 -34t62.5 -12.5q36 0 67 13t54 35.5t36 53t13 65.5q0 33 -13.5 62.5t-37 51.5t-53.5 35t-63 13q-36 0 -66.5 -14
t-53.5 -37t-36 -54t-13 -65z" />
    <glyph glyph-name="questiondown" unicode="&#xbf;" horiz-adv-x="432" 
d="M231 691l94 -323v-43h-99q-29 -1 -54 -12.5t-43.5 -31.5t-29.5 -46t-11 -56t11 -56.5t30.5 -46.5t45.5 -31.5t56 -11.5q40 0 71.5 20t51.5 52l30 -31q-25 -37 -64.5 -60.5t-88.5 -23.5q-38 0 -71 15t-58.5 41t-40 60t-14.5 73q0 38 14.5 72t39 60t57 41.5t68.5 15.5h56
l-94 323h43zM211 786q0 -12 -7.5 -20t-18.5 -8q-13 0 -20.5 8t-7.5 20q0 13 7.5 21t20.5 8q11 0 18.5 -8t7.5 -21z" />
    <glyph glyph-name="ae" unicode="&#xe6;" horiz-adv-x="743" 
d="M322 40q-23 -23 -54 -36.5t-67 -13.5q-33 0 -62.5 12t-51 32.5t-34.5 48t-13 58.5t13 59t34.5 48.5t51 32.5t62.5 12h115q2 17 6 32q0 29 -9 54t-23 43.5t-33.5 29.5t-40.5 12h-1q-65 0 -116 -15l-10 40q59 17 126 17h1q45 -2 81 -31t53 -76q28 49 70 78.5t92 29.5
q42 0 78 -19.5t62.5 -53.5t41.5 -80t15 -100v-24h-347v-46q8 -33 23.5 -60.5t36.5 -48t46.5 -32t54.5 -11.5q16 0 33.5 3.5t35 9t33.5 12t28 12.5l17 -37q-26 -14 -56 -24t-64 -16h-1q-6 -1 -12.5 -1h-13.5q-48 0 -89.5 24.5t-70.5 66.5q1 -34 2 -57t5 -25h-47zM669 271
q-3 40 -16.5 75.5t-34.5 61.5t-48 41t-58 15q-30 0 -57 -14.5t-47.5 -40.5t-32.5 -61.5t-12 -76.5h306zM313 252h-112q-25 0 -46.5 -9t-37.5 -24t-25 -35t-9 -43t9 -42.5t25 -34t37.5 -23t46.5 -8.5t47 8.5t38.5 23t26 34t9.5 42.5v31q-7 27 -9 58v22z" />
    <glyph glyph-name="a" unicode="a" horiz-adv-x="408" 
d="M310 41q-23 -23 -54 -36.5t-66 -13.5q-33 0 -62.5 12t-51 32.5t-34.5 48t-13 57.5q0 31 13 59t34.5 49t51 33t62.5 12h120v21v10q0 28 -7.5 53.5t-21.5 44t-33 30t-41 12.5h-1q-16 0 -27 -1t-20 -3.5t-18.5 -5.5t-22.5 -7l-10 39q14 5 24.5 8.5t21 6t23 3.5t29.5 1h1
q30 -1 55.5 -14.5t45 -36.5t31 -53.5t13.5 -65.5v-11q-1 -89 -1 -159q0 -30 -0.5 -59t-0.5 -52.5v-38.5v-16h-40v41zM310 251q-44 0 -68 0.5t-35 0.5h-13.5h-3.5q-24 0 -46 -9t-38 -24t-25.5 -35t-9.5 -43t9.5 -42.5t25.5 -34t38 -23t46 -8.5q25 0 46.5 8.5t38 23t26 34.5
t9.5 43v109z" />
    <glyph glyph-name="b" unicode="b" horiz-adv-x="523" 
d="M100 71q20 -11 44 -19q20 -8 47.5 -13.5t59.5 -6.5q40 1 76 18.5t63 46.5t43 68.5t16 83.5q0 43 -16 82t-43 68.5t-63 47t-76 17.5q-29 0 -56 -6t-48 -14q-25 -9 -47 -19v-354zM101 0h-40v94v597h42v-224q26 19 64.5 29t83.5 10q50 0 93.5 -20.5t76 -56t51.5 -82
t19 -98.5q0 -53 -19 -100t-51.5 -82t-76 -55.5t-93.5 -21.5q-47 2 -86 12.5t-65 27.5z" />
    <glyph glyph-name="c" unicode="c" horiz-adv-x="478" 
d="M404 397q-26 30 -62.5 48.5t-79.5 18.5q-41 0 -77 -17t-62.5 -46t-42 -68.5t-15.5 -84.5q0 -44 15.5 -83.5t42 -68.5t62.5 -46t77 -17t77 17t63 47l30 -29q-34 -35 -77 -56t-93 -21q-49 0 -92.5 20.5t-76 55.5t-51.5 81.5t-19 99.5t19 100t51.5 82t76 55.5t92.5 20.5
q52 0 96 -21.5t76 -56.5z" />
    <glyph glyph-name="oe" unicode="&#x153;" horiz-adv-x="880" 
d="M664 32q16 0 35.5 4.5t39 10.5t37.5 13.5t30 13.5l17 -37q-26 -14 -62 -26.5t-70 -18.5h-1q-6 -1 -12.5 -1h-13.5q-33 0 -62.5 11.5t-54.5 32t-44.5 49t-31.5 63.5q-14 -35 -35.5 -63.5t-49 -49.5t-60.5 -32.5t-69 -11.5q-48 0 -91 20.5t-75 55.5t-50.5 81.5t-18.5 99.5
q0 54 18.5 101t50.5 82t75 55.5t91 20.5q36 0 68.5 -11.5t60 -32t49 -49.5t35.5 -63q23 69 72 113t111 44q42 0 78 -19.5t62.5 -53.5t41.5 -80t15 -100v-24h-353q2 -42 16 -78t36.5 -62.5t52 -42t62.5 -15.5zM64 247q0 -44 15 -83.5t41.5 -68.5t61.5 -46t75 -17
q39 0 73.5 17t60 46t40.5 68.5t15 83.5q0 45 -15 84.5t-40.5 69t-60 46.5t-73.5 17q-40 0 -75 -17t-61.5 -46.5t-41.5 -69t-15 -84.5zM810 271q-3 40 -16.5 75.5t-34.5 61.5t-48 41t-58 15q-30 0 -57 -15t-48 -41t-34.5 -61.5t-16.5 -75.5h313z" />
    <glyph glyph-name="OE" unicode="&#x152;" horiz-adv-x="1056" 
d="M561 88q-43 -47 -98.5 -72t-119.5 -25q-63 0 -120 27t-100 74.5t-68.5 112.5t-25.5 140q0 73 24.5 136.5t67.5 111t100 75t122 27.5q89 0 160 -46.5t113 -126.5v169h399v-40h-357v-262h305v-42h-305v-305h357l1 -42h-399l-1 166q-23 -45 -55 -78zM530 570
q-35 39 -83.5 60.5t-103.5 21.5q-56 0 -105.5 -24t-86.5 -65.5t-58 -97.5t-21 -120q0 -65 21 -121.5t57.5 -98.5t86 -66.5t106.5 -24.5q55 0 103 22t84 60t58.5 89.5t27.5 111.5v55q-5 60 -27.5 110t-58.5 88z" />
    <glyph glyph-name="question" unicode="?" horiz-adv-x="410" 
d="M188 0l-92 321v41h94q29 1 54.5 12.5t44 31t29.5 45.5t11 55q0 31 -11 58t-30.5 47t-45.5 31.5t-55 11.5q-39 0 -70.5 -20t-50.5 -52l-29 29q24 38 63.5 61t86.5 23q38 0 71.5 -15t58 -40.5t39 -60t14.5 -73.5q0 -37 -14 -70.5t-38.5 -59t-57.5 -40.5t-70 -15h-53
l95 -321h-44zM206 -96q0 12 8 19t19 7q26 0 26 -26q0 -12 -7 -20.5t-19 -8.5q-11 0 -19 8.5t-8 20.5z" />
    <glyph glyph-name="acute" unicode="&#xb4;" horiz-adv-x="209" 
d="M66 553h-23l66 87h66z" />
    <glyph glyph-name="grave" unicode="`" horiz-adv-x="204" 
d="M31 640h66l66 -87h-23z" />
    <glyph glyph-name="agrave" unicode="&#xe0;" horiz-adv-x="406" 
d="M331 41q-23 -23 -54 -36.5t-66 -13.5q-33 0 -62.5 12t-51 32.5t-34.5 48t-13 57.5q0 31 13 59t34.5 49t51 33t62.5 12h120v21v10q0 28 -7.5 53.5t-21.5 44t-33 30t-41 12.5h-1q-16 0 -27 -1t-20 -3.5t-18.5 -5.5t-22.5 -7l-10 39q14 5 24.5 8.5t21 6t23 3.5t29.5 1h1
q30 -1 55.5 -14.5t45 -36.5t31 -53.5t13.5 -65.5v-11q-1 -89 -1 -159q0 -30 -0.5 -59t-0.5 -52.5v-38.5v-16h-40v41zM331 251q-44 0 -68 0.5t-35 0.5h-13.5h-3.5q-24 0 -46 -9t-38 -24t-25.5 -35t-9.5 -43t9.5 -42.5t25.5 -34t38 -23t46 -8.5q25 0 46.5 8.5t38 23t26 34.5
t9.5 43v109zM144 640h66l66 -87h-23z" />
    <glyph glyph-name="aacute" unicode="&#xe1;" horiz-adv-x="406" 
d="M331 41q-23 -23 -54 -36.5t-66 -13.5q-33 0 -62.5 12t-51 32.5t-34.5 48t-13 57.5q0 31 13 59t34.5 49t51 33t62.5 12h120v21v10q0 28 -7.5 53.5t-21.5 44t-33 30t-41 12.5h-1q-16 0 -27 -1t-20 -3.5t-18.5 -5.5t-22.5 -7l-10 39q14 5 24.5 8.5t21 6t23 3.5t29.5 1h1
q30 -1 55.5 -14.5t45 -36.5t31 -53.5t13.5 -65.5v-11q-1 -89 -1 -159q0 -30 -0.5 -59t-0.5 -52.5v-38.5v-16h-40v41zM331 251q-44 0 -68 0.5t-35 0.5h-13.5h-3.5q-24 0 -46 -9t-38 -24t-25.5 -35t-9.5 -43t9.5 -42.5t25.5 -34t38 -23t46 -8.5q25 0 46.5 8.5t38 23t26 34.5
t9.5 43v109zM235 553h-23l66 87h66z" />
    <glyph glyph-name="Agrave" unicode="&#xc0;" horiz-adv-x="596" 
d="M410 329l-107 288l-106 -288h213zM286 691h35l256 -691h-44l-108 287h-243l-106 -287h-44zM190 831h66l66 -87h-23z" />
    <glyph glyph-name="Aacute" unicode="&#xc1;" horiz-adv-x="596" 
d="M410 329l-107 288l-106 -288h213zM286 691h35l256 -691h-44l-108 287h-243l-106 -287h-44zM312 744h-23l66 87h66z" />
    <glyph glyph-name="Acircumflex" unicode="&#xc2;" horiz-adv-x="596" 
d="M410 329l-107 288l-106 -288h213zM286 691h35l256 -691h-44l-108 287h-243l-106 -287h-44z" />
    <glyph glyph-name="Egrave" unicode="&#xc8;" horiz-adv-x="485" 
d="M391 347h-305v-305h357l1 -42h-399l-1 691h399v-40h-357v-262h305v-42zM121 831h66l66 -87h-23z" />
    <glyph glyph-name="Eacute" unicode="&#xc9;" horiz-adv-x="485" 
d="M391 347h-305v-305h357l1 -42h-399l-1 691h399v-40h-357v-262h305v-42zM229 744h-23l66 87h66z" />
    <glyph glyph-name="Ograve" unicode="&#xd2;" 
d="M530 570q-35 39 -83.5 60.5t-103.5 21.5q-56 0 -105.5 -24t-86.5 -65.5t-58 -97.5t-21 -120q0 -65 21 -121.5t57.5 -98.5t86 -66.5t106.5 -24.5q58 0 108.5 24.5t87 66.5t57.5 98.5t21 121.5q0 68 -23 125.5t-64 99.5zM561 88q-43 -47 -98.5 -72t-119.5 -25
q-63 0 -120 27t-100 74.5t-68.5 112.5t-25.5 140q0 73 24.5 136.5t67.5 111t100 75t122 27.5q67 0 124.5 -27.5t99.5 -74.5t66 -111t24 -137q0 -78 -25 -143.5t-71 -113.5zM212 831h66l66 -87h-23z" />
    <glyph glyph-name="Oacute" unicode="&#xd3;" 
d="M530 570q-35 39 -83.5 60.5t-103.5 21.5q-56 0 -105.5 -24t-86.5 -65.5t-58 -97.5t-21 -120q0 -65 21 -121.5t57.5 -98.5t86 -66.5t106.5 -24.5q58 0 108.5 24.5t87 66.5t57.5 98.5t21 121.5q0 68 -23 125.5t-64 99.5zM561 88q-43 -47 -98.5 -72t-119.5 -25
q-63 0 -120 27t-100 74.5t-68.5 112.5t-25.5 140q0 73 24.5 136.5t67.5 111t100 75t122 27.5q67 0 124.5 -27.5t99.5 -74.5t66 -111t24 -137q0 -78 -25 -143.5t-71 -113.5zM367 744h-23l66 87h66z" />
    <glyph glyph-name="Ugrave" unicode="&#xd9;" horiz-adv-x="598" 
d="M88 173q2 -29 19.5 -54.5t46 -44t66.5 -29.5t81 -11q41 0 78 11t65.5 29.5t45.5 44t19 54.5v518h42v-518q-2 -37 -22 -70t-54 -58t-79 -39.5t-95 -14.5q-52 0 -98 14.5t-80.5 39.5t-55.5 58t-24 70v518h45v-518zM184 831h66l66 -87h-23z" />
    <glyph glyph-name="Uacute" unicode="&#xda;" horiz-adv-x="598" 
d="M88 173q2 -29 19.5 -54.5t46 -44t66.5 -29.5t81 -11q41 0 78 11t65.5 29.5t45.5 44t19 54.5v518h42v-518q-2 -37 -22 -70t-54 -58t-79 -39.5t-95 -14.5q-52 0 -98 14.5t-80.5 39.5t-55.5 58t-24 70v518h45v-518zM308 744h-23l66 87h66z" />
    <glyph glyph-name="Yacute" unicode="&#xdd;" horiz-adv-x="681" 
d="M644 691l-283 -378l1 -313h-43l-1 313l-283 378h57l246 -338l250 338h56zM358 744h-23l66 87h66z" />
    <glyph glyph-name="egrave" unicode="&#xe8;" horiz-adv-x="456" 
d="M241 33q21 0 42.5 3.5t41 9.5t36.5 14t28 16l17 -39q-24 -18 -62.5 -29t-77.5 -16h-1q-6 -1 -12.5 -1h-13.5q-42 0 -78.5 18.5t-65 51t-46 76t-20.5 93.5v19q0 53 16 100t43 82t63 55.5t77 20.5q42 0 78 -17.5t62.5 -49.5t41.5 -76.5t15 -98.5v-24h-353q2 -42 16.5 -79.5
t37 -66t52.5 -45.5t63 -17zM385 282q-3 40 -16.5 73.5t-34.5 57.5t-48 37.5t-58 13.5q-30 0 -57 -13.5t-48 -37.5t-34.5 -57.5t-16.5 -73.5h313zM143 640h66l66 -87h-23z" />
    <glyph glyph-name="eacute" unicode="&#xe9;" horiz-adv-x="456" 
d="M241 33q21 0 42.5 3.5t41 9.5t36.5 14t28 16l17 -39q-24 -18 -62.5 -29t-77.5 -16h-1q-6 -1 -12.5 -1h-13.5q-42 0 -78.5 18.5t-65 51t-46 76t-20.5 93.5v19q0 53 16 100t43 82t63 55.5t77 20.5q42 0 78 -17.5t62.5 -49.5t41.5 -76.5t15 -98.5v-24h-353q2 -42 16.5 -79.5
t37 -66t52.5 -45.5t63 -17zM385 282q-3 40 -16.5 73.5t-34.5 57.5t-48 37.5t-58 13.5q-30 0 -57 -13.5t-48 -37.5t-34.5 -57.5t-16.5 -73.5h313zM245 553h-23l66 87h66z" />
    <glyph glyph-name="igrave" unicode="&#xec;" horiz-adv-x="211" 
d="M95 500h41l1 -500h-41zM15 640h66l66 -87h-23z" />
    <glyph glyph-name="iacute" unicode="&#xed;" horiz-adv-x="211" 
d="M65 500h41l1 -500h-41zM74 553h-23l66 87h66z" />
    <glyph glyph-name="ograve" unicode="&#xf2;" horiz-adv-x="527" 
d="M64 247q0 -44 15 -83.5t41.5 -68.5t61.5 -46t75 -17q39 0 73.5 17t60 46t40.5 68.5t15 83.5q0 45 -15 84.5t-40.5 69t-60 46.5t-73.5 17q-40 0 -75 -17t-61.5 -46.5t-41.5 -69t-15 -84.5zM22 247q0 54 18.5 101t50.5 82t75 55.5t91 20.5t90 -20.5t73.5 -55.5t50 -82
t18.5 -101q0 -53 -18.5 -99.5t-50 -81.5t-73.5 -55.5t-90 -20.5t-91 20.5t-75 55.5t-50.5 81.5t-18.5 99.5zM156 640h66l66 -87h-23z" />
    <glyph glyph-name="oacute" unicode="&#xf3;" horiz-adv-x="527" 
d="M64 247q0 -44 15 -83.5t41.5 -68.5t61.5 -46t75 -17q39 0 73.5 17t60 46t40.5 68.5t15 83.5q0 45 -15 84.5t-40.5 69t-60 46.5t-73.5 17q-40 0 -75 -17t-61.5 -46.5t-41.5 -69t-15 -84.5zM22 247q0 54 18.5 101t50.5 82t75 55.5t91 20.5t90 -20.5t73.5 -55.5t50 -82
t18.5 -101q0 -53 -18.5 -99.5t-50 -81.5t-73.5 -55.5t-90 -20.5t-91 20.5t-75 55.5t-50.5 81.5t-18.5 99.5zM272 553h-23l66 87h66z" />
    <glyph glyph-name="ugrave" unicode="&#xf9;" horiz-adv-x="450" 
d="M355 70q-23 -35 -59 -57t-79 -22q-35 0 -65 14.5t-52.5 39.5t-35.5 58.5t-14 71.5l-3 325h41l2 -325q1 -29 11 -54.5t27 -45t40 -30.5t50 -11q25 0 48.5 10t42 27t31 40t15.5 49v340h42v-452v-48h-41zM119 640h66l66 -87h-23z" />
    <glyph glyph-name="uacute" unicode="&#xfa;" horiz-adv-x="450" 
d="M355 70q-23 -35 -59 -57t-79 -22q-35 0 -65 14.5t-52.5 39.5t-35.5 58.5t-14 71.5l-3 325h41l2 -325q1 -29 11 -54.5t27 -45t40 -30.5t50 -11q25 0 48.5 10t42 27t31 40t15.5 49v340h42v-452v-48h-41zM219 553h-23l66 87h66z" />
    <glyph glyph-name="yacute" unicode="&#xfd;" horiz-adv-x="535" 
d="M58 -152q2 -2 4 -3t4 -3h2q5 0 11 -0.5t12 -0.5q35 0 68.5 23.5t51.5 68.5l41 102l-194 471h45l169 -422l166 422h45l-192 -471l-44 -117l-2 -9q-24 -53 -66.5 -81t-89.5 -28q-16 0 -36 5zM282 553h-23l66 87h66z" />
    <glyph glyph-name="colon" unicode=":" horiz-adv-x="182" 
d="M60 64h64l1 -64h-64zM60 500h64v-64h-64v64z" />
    <glyph glyph-name="semicolon" unicode=";" horiz-adv-x="169" 
d="M60 500h64v-64h-64v64zM66 64h48l1 -64l-83 -69l-5 6l40 63z" />
    <glyph glyph-name="equal" unicode="=" horiz-adv-x="440" 
d="M69 438h335v-44h-335v44zM69 244h335v-44h-335v44z" />
    <glyph glyph-name="Ccedilla" unicode="&#xc7;" horiz-adv-x="634" 
d="M554 570l-1 1q-37 39 -84.5 61.5t-100.5 22.5q-57 0 -107 -25t-87 -68t-58.5 -99.5t-21.5 -120.5q0 -62 21 -118.5t58 -99.5t87 -68t108 -25q53 0 100 22t83 60l30 -28q-45 -48 -101.5 -71t-122.5 -23l-9 -23q4 0 12.5 -4t17.5 -11.5t15.5 -18t6.5 -22.5
q0 -14 -10.5 -28.5t-38.5 -30.5l-33 25q4 0 12 1.5t16 6t14.5 11t6.5 17.5q0 9 -6 15t-14 9.5t-16.5 5t-14.5 1.5h-8l1 51q-54 12 -101 43t-81.5 76.5t-54 103.5t-19.5 123q0 75 25 139.5t67.5 112t100 74.5t122.5 27q62 0 117 -25t97 -70q0 -1 0.5 -1t0.5 -1z" />
    <glyph glyph-name="ccedilla" unicode="&#xe7;" horiz-adv-x="493" 
d="M281 -36q4 0 12.5 -4t17.5 -11.5t15.5 -18t6.5 -22.5q0 -14 -11 -29t-39 -32l-32 26q7 1 15 3.5t15.5 6.5t12.5 9.5t5 13.5q0 11 -5.5 18t-13.5 10.5t-17 5t-15 1.5q-2 0 -4.5 -0.5t-4.5 -0.5l2 54q-43 7 -80 29.5t-64.5 56.5t-43 77t-15.5 92q0 53 18.5 99.5t51 81.5
t76.5 55.5t94 20.5q51 0 95.5 -21t76.5 -58l-29 -29q-28 30 -64.5 48t-78.5 18q-41 0 -77 -17t-63 -46t-42.5 -68t-15.5 -84t15.5 -84.5t42.5 -68.5t63 -46t77 -17t77 16.5t62 45.5l30 -29q-30 -32 -70 -52t-88 -23z" />
    <glyph glyph-name="cent" unicode="&#xa2;" horiz-adv-x="478" 
d="M240 572h47v-68q44 -5 81.5 -25.5t65.5 -50.5l-30 -31q-22 26 -52 43t-65 22v-428q33 5 62.5 21t52.5 42l30 -29q-30 -31 -66.5 -50.5t-78.5 -24.5v-68h-47v68q-45 4 -84.5 25.5t-69 56t-46.5 79t-17 94.5t17 94.5t46.5 79t69 56t84.5 26.5v68zM65 248q0 -41 13.5 -78
t37 -65.5t55.5 -47.5t69 -23v428q-37 -5 -69 -23t-55.5 -46.5t-37 -65.5t-13.5 -79z" />
    <glyph glyph-name="bar" unicode="|" horiz-adv-x="131" 
d="M56 717h26v-716h-26v716z" />
    <glyph glyph-name="dollar" unicode="$" horiz-adv-x="466" 
d="M211 652q-27 -5 -51 -18t-42 -31.5t-28.5 -41.5t-10.5 -48q0 -26 10 -50t27.5 -43.5t41.5 -33.5t53 -20v286zM253 35q27 4 51.5 15.5t43 29t29.5 40.5t11 50t-10 51t-28 44t-43 33.5t-54 19.5v-283zM253 737v-43q55 0 98.5 -21t75.5 -56l-34 -27q-24 29 -60.5 47
t-79.5 18v-296q39 -8 72 -25t57 -41.5t37.5 -55t13.5 -64.5q0 -35 -14 -66t-38 -55t-57 -39.5t-71 -19.5v-59h-42v57q-4 1 -11 1q-53 5 -95.5 30.5t-68.5 62.5l34 27q20 -31 57.5 -55t83.5 -24v290q-39 7 -71 24t-55.5 42t-36.5 55.5t-13 64.5q0 36 13 66.5t36.5 54.5t56 40
t70.5 22v45h42z" />
    <glyph glyph-name="quoteleft" unicode="&#x2018;" horiz-adv-x="150" 
d="M104 555l-43 -20l-27 58l45 97l8 -4l-9 -74z" />
    <glyph glyph-name="quoteright" unicode="&#x2019;" horiz-adv-x="159" 
d="M59 686l48 5l7 -63l-74 -78l-6 6l32 67z" />
    <glyph glyph-name="quotedblright" unicode="&#x201d;" horiz-adv-x="237" 
d="M59 686l48 5l7 -63l-74 -78l-6 6l32 67zM132 686l48 5l7 -63l-74 -78l-6 6l32 67z" />
    <glyph glyph-name="quotedblleft" unicode="&#x201c;" horiz-adv-x="218" 
d="M155 623l32 -67l-6 -6l-74 78l7 63l48 -5zM82 623l32 -67l-6 -6l-74 78l7 63l48 -5z" />
    <glyph glyph-name="quotedbl" unicode="&#x22;" horiz-adv-x="217" 
d="M36 691h48l7 -63l-38 -80l-6 6zM111 691h48l7 -63l-38 -80l-6 6z" />
    <glyph glyph-name="quotedblbase" unicode="&#x201e;" horiz-adv-x="231" 
d="M64 66h49v-63l-80 -70l-5 6l38 64zM140 65h47v-64l-81 -70l-4 7l38 64v63z" />
    <glyph glyph-name="ordfeminine" unicode="&#xaa;" horiz-adv-x="179" 
d="M124 320v6q-14 -10 -37 -10q-26 0 -44 17t-18 42q0 23 18 39.5t46 16.5h35v6q0 17 -9.5 30.5t-22.5 13.5t-23.5 -1t-21.5 -5l-5 25q21 6 50 6q23 0 38.5 -19t17.5 -50q-1 -9 -1 -18v-38q0 -19 3 -37.5t8 -23.5h-34zM87 407q-15 0 -26 -10.5t-11 -21.5q0 -13 11 -23
t26 -10q14 0 25.5 10t11.5 23v32h-37z" />
    <glyph glyph-name="ordmasculine" unicode="&#xba;" horiz-adv-x="232" 
d="M51 406q0 -26 20 -47.5t46 -21.5q11 0 21.5 6t19 15.5t14 22t5.5 25.5q0 15 -5.5 28.5t-14 24t-19 16.5t-21.5 6q-13 0 -25 -6t-21 -16.5t-14.5 -24t-5.5 -28.5zM26 406q0 44 26 72t65 28q18 0 33.5 -7.5t27 -21t18.5 -31.5t7 -40q0 -20 -7 -37t-18.5 -30t-27 -20.5
t-33.5 -7.5q-39 0 -65 28t-26 67z" />
    <glyph glyph-name="twosuperior" unicode="&#xb2;" horiz-adv-x="280" 
d="M242 347v-30h-209v30l155 173q11 12 17.5 28.5t6.5 30.5q0 17 -7.5 32.5t-19.5 27t-28 18.5t-33 7t-34 -7.5t-33 -23.5l-24 25q20 17 42 27t49 10q25 0 46.5 -9t37.5 -25t25 -37t9 -45q0 -23 -10 -45.5t-21 -36.5l-133 -150h164z" />
    <glyph glyph-name="threesuperior" unicode="&#xb3;" horiz-adv-x="265" 
d="M45 374q12 -14 30.5 -23t37.5 -9q15 0 30 6t26.5 16t18.5 23.5t7 28.5t-6.5 28t-17 23t-24 16.5t-27.5 8.5h-54v31h54q15 1 28.5 7t24 15.5t17 22t6.5 25.5t-7 25.5t-18.5 22t-26 15t-30.5 5.5q-19 0 -38.5 -8t-34.5 -25l-23 24q36 39 96 39q24 0 44.5 -7.5t36.5 -21
t25 -31t9 -38.5q0 -60 -56 -86q22 -15 37.5 -39.5t15.5 -51.5q0 -22 -9 -41t-24.5 -33t-36 -22t-43.5 -8q-30 0 -54 11t-41 31l19 20h8z" />
    <glyph glyph-name="dieresis" unicode="&#xa8;" horiz-adv-x="263" 
d="M38 650q0 11 8.5 19t20.5 8q11 0 20 -8t9 -19t-9 -19t-20 -8q-12 0 -20.5 8t-8.5 19zM172 650q0 11 8.5 19t20.5 8q11 0 20 -8t9 -19t-9 -19t-20 -8q-12 0 -20.5 8t-8.5 19z" />
    <glyph glyph-name="adieresis" unicode="&#xe4;" horiz-adv-x="406" 
d="M154 634q0 11 8.5 19t20.5 8q11 0 20 -8t9 -19t-9 -19t-20 -8q-12 0 -20.5 8t-8.5 19zM288 634q0 11 8.5 19t20.5 8q11 0 20 -8t9 -19t-9 -19t-20 -8q-12 0 -20.5 8t-8.5 19zM331 41q-23 -23 -54 -36.5t-66 -13.5q-33 0 -62.5 12t-51 32.5t-34.5 48t-13 57.5q0 31 13 59
t34.5 49t51 33t62.5 12h120v21v10q0 28 -7.5 53.5t-21.5 44t-33 30t-41 12.5h-1q-16 0 -27 -1t-20 -3.5t-18.5 -5.5t-22.5 -7l-10 39q14 5 24.5 8.5t21 6t23 3.5t29.5 1h1q30 -1 55.5 -14.5t45 -36.5t31 -53.5t13.5 -65.5v-11q-1 -89 -1 -159q0 -30 -0.5 -59t-0.5 -52.5
v-38.5v-16h-40v41zM331 251q-44 0 -68 0.5t-35 0.5h-13.5h-3.5q-24 0 -46 -9t-38 -24t-25.5 -35t-9.5 -43t9.5 -42.5t25.5 -34t38 -23t46 -8.5q25 0 46.5 8.5t38 23t26 34.5t9.5 43v109z" />
    <glyph glyph-name="edieresis" unicode="&#xeb;" horiz-adv-x="456" 
d="M241 33q21 0 42.5 3.5t41 9.5t36.5 14t28 16l17 -39q-24 -18 -62.5 -29t-77.5 -16h-1q-6 -1 -12.5 -1h-13.5q-42 0 -78.5 18.5t-65 51t-46 76t-20.5 93.5v19q0 53 16 100t43 82t63 55.5t77 20.5q42 0 78 -17.5t62.5 -49.5t41.5 -76.5t15 -98.5v-24h-353q2 -42 16.5 -79.5
t37 -66t52.5 -45.5t63 -17zM385 282q-3 40 -16.5 73.5t-34.5 57.5t-48 37.5t-58 13.5q-30 0 -57 -13.5t-48 -37.5t-34.5 -57.5t-16.5 -73.5h313zM131 650q0 11 8.5 19t20.5 8q11 0 20 -8t9 -19t-9 -19t-20 -8q-12 0 -20.5 8t-8.5 19zM265 650q0 11 8.5 19t20.5 8q11 0 20 -8
t9 -19t-9 -19t-20 -8q-12 0 -20.5 8t-8.5 19z" />
    <glyph glyph-name="odieresis" unicode="&#xf6;" horiz-adv-x="527" 
d="M64 247q0 -44 15 -83.5t41.5 -68.5t61.5 -46t75 -17q39 0 73.5 17t60 46t40.5 68.5t15 83.5q0 45 -15 84.5t-40.5 69t-60 46.5t-73.5 17q-40 0 -75 -17t-61.5 -46.5t-41.5 -69t-15 -84.5zM22 247q0 54 18.5 101t50.5 82t75 55.5t91 20.5t90 -20.5t73.5 -55.5t50 -82
t18.5 -101q0 -53 -18.5 -99.5t-50 -81.5t-73.5 -55.5t-90 -20.5t-91 20.5t-75 55.5t-50.5 81.5t-18.5 99.5zM172 650q0 11 8.5 19t20.5 8q11 0 20 -8t9 -19t-9 -19t-20 -8q-12 0 -20.5 8t-8.5 19zM306 650q0 11 8.5 19t20.5 8q11 0 20 -8t9 -19t-9 -19t-20 -8q-12 0 -20.5 8
t-8.5 19z" />
    <glyph glyph-name="udieresis" unicode="&#xfc;" horiz-adv-x="450" 
d="M355 70q-23 -35 -59 -57t-79 -22q-35 0 -65 14.5t-52.5 39.5t-35.5 58.5t-14 71.5l-3 325h41l2 -325q1 -29 11 -54.5t27 -45t40 -30.5t50 -11q25 0 48.5 10t42 27t31 40t15.5 49v340h42v-452v-48h-41zM128 650q0 11 8.5 19t20.5 8q11 0 20 -8t9 -19t-9 -19t-20 -8
q-12 0 -20.5 8t-8.5 19zM262 650q0 11 8.5 19t20.5 8q11 0 20 -8t9 -19t-9 -19t-20 -8q-12 0 -20.5 8t-8.5 19z" />
    <glyph glyph-name="ydieresis" unicode="&#xff;" horiz-adv-x="535" 
d="M58 -152q2 -2 4 -3t4 -3h2q5 0 11 -0.5t12 -0.5q35 0 68.5 23.5t51.5 68.5l41 102l-194 471h45l169 -422l166 422h45l-192 -471l-44 -117l-2 -9q-24 -53 -66.5 -81t-89.5 -28q-16 0 -36 5zM181 650q0 11 8.5 19t20.5 8q11 0 20 -8t9 -19t-9 -19t-20 -8q-12 0 -20.5 8
t-8.5 19zM315 650q0 11 8.5 19t20.5 8q11 0 20 -8t9 -19t-9 -19t-20 -8q-12 0 -20.5 8t-8.5 19z" />
    <glyph glyph-name="idieresis" unicode="&#xef;" horiz-adv-x="177" 
d="M65 500h41l1 -500h-41zM11 650q0 11 8.5 19t20.5 8q11 0 20 -8t9 -19t-9 -19t-20 -8q-12 0 -20.5 8t-8.5 19zM105 650q0 11 8.5 19t20.5 8q11 0 20 -8t9 -19t-9 -19t-20 -8q-12 0 -20.5 8t-8.5 19z" />
    <glyph glyph-name="tilde" unicode="&#x2dc;" horiz-adv-x="334" 
d="M268 573l-1 1q-15 21 -39.5 26.5t-44.5 -7.5h-1q-26 -18 -58.5 -16.5t-59.5 19.5l9 51q16 -20 39.5 -25.5t43.5 7.5h1q27 18 60 16.5t60 -20.5z" />
    <glyph glyph-name="ntilde" unicode="&#xf1;" horiz-adv-x="433" 
d="M316 566l-1 1q-15 18 -39.5 22.5t-44.5 -6.5h-1q-26 -15 -58.5 -13.5t-59.5 16.5l9 43q16 -17 39.5 -21.5t43.5 6.5h1q27 15 60 13.5t60 -17.5zM81 429q24 38 60 58.5t79 20.5q35 0 65.5 -14.5t53 -39t36 -58t14.5 -71.5l3 -325h-42l-1 325q-1 30 -10.5 55.5t-26 44.5
t-39.5 30t-50 11q-25 0 -49 -9.5t-43.5 -26.5t-32.5 -40t-17 -50l1 -340h-42l-1 500h42v-71z" />
    <glyph glyph-name="otilde" unicode="&#xf5;" horiz-adv-x="513" 
d="M64 247q0 -44 15 -83.5t41.5 -68.5t61.5 -46t75 -17q39 0 73.5 17t60 46t40.5 68.5t15 83.5q0 45 -15 84.5t-40.5 69t-60 46.5t-73.5 17q-40 0 -75 -17t-61.5 -46.5t-41.5 -69t-15 -84.5zM22 247q0 54 18.5 101t50.5 82t75 55.5t91 20.5t90 -20.5t73.5 -55.5t50 -82
t18.5 -101q0 -53 -18.5 -99.5t-50 -81.5t-73.5 -55.5t-90 -20.5t-91 20.5t-75 55.5t-50.5 81.5t-18.5 99.5zM365 573l-1 1q-15 21 -39.5 26.5t-44.5 -7.5h-1q-26 -18 -58.5 -16.5t-59.5 19.5l9 51q16 -20 39.5 -25.5t43.5 7.5h1q27 18 60 16.5t60 -20.5z" />
    <glyph glyph-name="oslash" unicode="&#xf8;" horiz-adv-x="513" 
d="M22 247q0 54 18.5 101t50.5 82t75 55.5t91 20.5q49 0 91.5 -21.5t74.5 -57.5l-32 -28q-26 30 -60.5 47.5t-73.5 17.5q-40 0 -75 -17t-61.5 -46.5t-41.5 -69t-15 -84.5q0 -29 6.5 -55.5t17.5 -49.5l-32 -28q-34 60 -34 133zM446 247q0 34 -8.5 64.5t-24.5 56.5l33 28
q20 -32 31.5 -69.5t11.5 -79.5q0 -53 -18.5 -99.5t-50 -81.5t-73.5 -55.5t-90 -20.5q-54 0 -100.5 24.5t-78.5 66.5l31 27q26 -35 64.5 -55.5t83.5 -20.5q39 0 73.5 17t60 46t40.5 68.5t15 83.5z" />
    <glyph glyph-name="exclam" unicode="!" horiz-adv-x="176" 
d="M103 15q0 -10 -6.5 -17t-16.5 -7t-17 7t-7 17t7 16.5t17 6.5q11 0 16.5 -6.5t6.5 -16.5zM62 691h36v-592h-36v592z" />
    <glyph glyph-name="exclamdown" unicode="&#xa1;" horiz-adv-x="160" 
d="M57 671q0 10 6.5 17t16.5 7t17 -7t7 -17t-7 -16.5t-17 -6.5q-11 0 -16.5 6.5t-6.5 16.5zM99 0h-36l-1 588h36z" />
    <glyph glyph-name="quotesingle" unicode="'" horiz-adv-x="121" 
d="M47 686l48 5l7 -63l-74 -78l-6 6l32 67z" />
    <glyph glyph-name="parenleft" unicode="(" horiz-adv-x="260" 
d="M177 646q-19 -23 -34 -59.5t-26 -83t-17 -101t-6 -113.5q0 -65 7 -124t19.5 -108t30.5 -85.5t39 -56.5l-25 -42q-26 25 -48 67t-37.5 96t-24.5 118t-9 135q0 67 8.5 129t23.5 115t35.5 94.5t44.5 67.5z" />
    <glyph glyph-name="parenright" unicode=")" horiz-adv-x="246" 
d="M90 695q24 -26 44.5 -67.5t35.5 -94.5t23.5 -115t8.5 -129q0 -71 -9 -135t-24.5 -118t-37.5 -96t-48 -67l-25 42q21 20 39 56.5t30.5 85.5t19.5 108t7 124q0 59 -6 113.5t-17 101t-26 83t-34 59.5z" />
    <glyph glyph-name="asciitilde" unicode="~" horiz-adv-x="347" 
d="M272 276l-1 1q-15 21 -39.5 26.5t-44.5 -7.5h-1q-26 -18 -58.5 -16.5t-59.5 19.5l9 51q16 -20 39.5 -25.5t43.5 7.5h1q27 18 60 16.5t60 -20.5z" />
    <glyph glyph-name="onequarter" unicode="&#xbc;" horiz-adv-x="382" 
d="M291 335l-109 -187h103v77h21v-77h49v-21h-49l1 -127h-21l-1 127h-127v21l115 197zM34 454l63 52h21v-293h-21v266l-48 -39z" />
    <glyph glyph-name="onehalf" unicode="&#xbd;" horiz-adv-x="355" 
d="M22 455l63 52h21v-294h-21v267l-48 -39zM164 20h161l1 -20h-189l-1 20l146 163q10 11 16 26t6 31q0 37 -25.5 61.5t-62.5 24.5q-35 0 -61 -24l-15 15q15 14 34 22t42 8q22 0 42 -8.5t35 -23t23.5 -34t8.5 -41.5t-8.5 -40t-21.5 -32z" />
    <glyph glyph-name="bullet" unicode="&#x2022;" horiz-adv-x="209" 
d="M44 384q0 25 18.5 44t43.5 19q24 0 43.5 -19t19.5 -44q0 -11 -5.5 -22t-14 -19.5t-20 -13.5t-23.5 -5q-25 0 -43.5 18.5t-18.5 41.5z" />
    <glyph glyph-name="periodcentered" unicode="&#xb7;" horiz-adv-x="225" 
d="M62 314q0 19 15.5 34.5t37.5 15.5q21 0 37.5 -15.5t16.5 -34.5t-16.5 -34t-37.5 -15q-22 0 -37.5 15t-15.5 34z" />
    <glyph glyph-name="degree" unicode="&#xb0;" horiz-adv-x="250" 
d="M54 596q0 -26 22 -47.5t51 -21.5q12 0 24 6t21 15.5t15 22t6 25.5q0 14 -6 27.5t-15 24t-21 16.5t-24 6q-29 0 -51 -22.5t-22 -51.5zM26 596q0 43 28.5 71t72.5 28q39 0 67 -28t28 -71q0 -20 -7.5 -37t-20.5 -30t-30.5 -20.5t-36.5 -7.5q-22 0 -40.5 7.5t-32 20.5t-21 30
t-7.5 37z" />
    <glyph glyph-name="brokenbar" unicode="&#xa6;" horiz-adv-x="131" 
d="M56 410v307h26v-307h-26zM82 344v-343h-26v343h26z" />
    <glyph glyph-name="section" unicode="&#xa7;" horiz-adv-x="381" 
d="M292 486q-40 20 -82 20q-23 0 -41 -7q11 -21 30.5 -42t48.5 -35q52 -26 82 -68.5t30 -90.5q0 -26 -11.5 -49.5t-28.5 -40.5q1 -6 1.5 -12t0.5 -11q0 -30 -11.5 -54t-31 -40t-44.5 -24.5t-51 -8.5q-47 0 -95 24l18 37q20 -10 38.5 -14t37.5 -4q40 0 69 21t29 63
q-14 -8 -29 -10t-30 -2q-24 0 -48 5.5t-47 17.5l18 39q41 -19 78 -19q28 0 49 10q-11 24 -31 45.5t-49 35.5q-26 12 -47.5 30.5t-36.5 39.5t-23 44t-8 46q0 54 42 87q-3 13 -3 26q0 28 11 50.5t29.5 38t43 23.5t52.5 8q46 0 95 -23l-18 -41q-20 11 -41 15.5t-39 4.5
q-38 0 -65 -19.5t-27 -57.5v-3q25 9 55 9q48 0 97 -23zM310 230q5 8 6.5 17t1.5 18q0 34 -23.5 68t-65.5 55q-32 14 -55.5 37t-37.5 49q-8 -8 -12 -21t-4 -25q0 -32 24 -65.5t66 -54.5q32 -15 56 -39t37 -50q3 3 7 11zM216 322q-38 19 -60 48t-22 58q0 4 1 8.5t2 8.5
q31 -46 87 -72l-1 1q38 -19 59.5 -49t21.5 -60q0 -5 -0.5 -8.5t-1.5 -7.5q-31 46 -86 74v-1zM328 535q-31 14 -60.5 22t-55.5 8q-20 0 -38 -3q6 21 27 32.5t48 11.5q35 0 87 -25l30 69q-32 16 -60.5 23t-53.5 7q-30 0 -57.5 -9t-48 -26.5t-32.5 -42.5t-12 -57v-9.5t1 -10.5
q-40 -35 -40 -93q0 -24 8.5 -49.5t24.5 -48.5t39 -43t51 -34v1q43 -22 66 -58q-7 -2 -14.5 -3t-14.5 -1q-17 0 -39 6.5t-46 17.5l-30 -66q30 -17 59 -24.5t55 -7.5q11 0 20.5 0.5t19.5 3.5q-8 -23 -29.5 -34t-49.5 -11q-36 0 -82 23l-31 -63q64 -34 114 -34q29 0 56.5 9.5
t48.5 28t34 45t13 60.5v8t-1 9q16 19 27.5 44.5t11.5 51.5q0 51 -33 98t-87 75q-20 11 -35.5 25t-26.5 29q5 1 18 1q38 0 88 -25zM306 445q-25 12 -44.5 19t-35.5 9q13 -12 34 -23q29 -14 52.5 -35t40.5 -45.5t26 -52t9 -54.5q0 -29 -10.5 -54.5t-27.5 -46.5v-12
q0 -38 -14 -67.5t-37.5 -49.5t-53.5 -30.5t-61 -10.5q-27 0 -61 10t-73 31l45 91q29 -14 50.5 -20.5t37.5 -6.5q27 0 44 10h-5q-26 0 -59.5 9.5t-72.5 31.5l42 91q27 -13 50 -20t40 -7q-8 8 -18.5 16t-23.5 15q-29 15 -53.5 36.5t-41.5 46.5t-26.5 52t-9.5 54q0 58 38 99v14
q0 36 13.5 64t36 47.5t52.5 29.5t63 10q26 0 59 -9.5t75 -29.5l-44 -97q-60 30 -93 30q-11 0 -21.5 -2.5t-18.5 -6.5h3q26 0 60.5 -10t74.5 -28zM221 336q18 -8 33.5 -19t28.5 -23q-8 18 -24.5 35.5t-41.5 29.5l1 -1q-19 8 -34.5 19t-29.5 23q8 -17 25 -34t43 -30h-1z" />
    <glyph glyph-name="dagger" unicode="&#x2020;" horiz-adv-x="486" 
d="M43 559v26h187v132h26v-132h197v-26h-197v-558h-26v558h-187z" />
    <glyph glyph-name="threequarters" unicode="&#xbe;" horiz-adv-x="458" 
d="M47 204q11 -13 28.5 -21t37.5 -8q18 0 33.5 6t27 16.5t18 24t6.5 29.5q0 21 -10.5 36.5t-28 25.5t-40 13.5t-45.5 -0.5v21h46q33 2 56 22t23 47q0 30 -24.5 50.5t-59.5 20.5q-43 0 -68 -28l-15 15q31 33 83 33q22 0 41 -7t33.5 -19.5t23 -29t8.5 -35.5q0 -26 -16.5 -47.5
t-42.5 -32.5q26 -12 41.5 -34.5t15.5 -50.5q0 -20 -8.5 -38t-22.5 -31t-33.5 -20.5t-41.5 -7.5q-25 0 -46 10t-35 26zM234 129v21l115 197l18 -10l-108 -187h102v77h21v-77h50v-21h-50v-127h-21v127h-127z" />
    <glyph glyph-name="trademark" unicode="&#x2122;" horiz-adv-x="417" 
d="M122 480h-32v174h-60v29h150v-29h-58v-174zM361 683v-203h-30v138q-11 -18 -23 -37t-20 -35h-16l-42 72v-138h-31v203h26l56 -95q14 26 27.5 49t27.5 46h25z" />
    <glyph glyph-name="Ydieresis" unicode="&#x178;" horiz-adv-x="681" 
d="M644 691l-283 -378l1 -313h-43l-1 313l-283 378h57l246 -338l250 338h56zM242 753q0 11 8.5 19t20.5 8q11 0 20 -8t9 -19t-9 -19t-20 -8q-12 0 -20.5 8t-8.5 19zM376 753q0 11 8.5 19t20.5 8q11 0 20 -8t9 -19t-9 -19t-20 -8q-12 0 -20.5 8t-8.5 19z" />
    <glyph glyph-name="paragraph" unicode="&#xb6;" horiz-adv-x="382" 
d="M263 0v690h40v-690h-40zM178 655q-22 0 -41.5 -10t-34.5 -26.5t-23.5 -39.5t-8.5 -48q0 -26 8.5 -48.5t23.5 -39t34.5 -26.5t41.5 -10v248zM193 0v362q-34 0 -64 13t-52 35.5t-35 52.5t-13 64t13 64t35 52t52 35t64 13h40v-691h-40z" />
    <glyph glyph-name="perthousand" unicode="&#x2030;" horiz-adv-x="1040" 
d="M524 691h50l-401 -690h-48zM744 182q0 -26 8 -48.5t22.5 -39.5t33.5 -26.5t40 -9.5q22 0 41.5 9.5t34 26.5t23 39.5t8.5 48.5t-8.5 49t-23 39.5t-34 26t-41.5 9.5q-21 0 -40 -9.5t-33.5 -26t-22.5 -39.5t-8 -49zM702 182q0 34 11.5 64.5t31.5 52.5t46.5 35t56.5 13
q31 0 58 -13t47 -35t32 -52.5t12 -64.5t-12 -64.5t-32 -53t-47 -35.5t-58 -13q-30 0 -56.5 13t-46.5 35.5t-31.5 53t-11.5 64.5zM91 506q0 -25 8.5 -47.5t23 -39.5t34 -27t41.5 -10q21 0 40 10t33 27t22.5 39.5t8.5 47.5q0 26 -8.5 49t-22.5 39.5t-33 26t-40 9.5
q-22 0 -41.5 -9.5t-34 -26t-23 -39.5t-8.5 -49zM49 506q0 34 11.5 64.5t32 53t47.5 35.5t58 13q30 0 57 -13t46.5 -35.5t31 -53t11.5 -64.5t-11.5 -64.5t-31 -53t-46.5 -35.5t-57 -13q-31 0 -58 13t-47.5 35.5t-32 53t-11.5 64.5zM415 182q0 -26 8 -48.5t22.5 -39.5
t33.5 -26.5t40 -9.5q22 0 41.5 9.5t34 26.5t23 39.5t8.5 48.5t-8.5 49t-23 39.5t-34 26t-41.5 9.5q-21 0 -40 -9.5t-33.5 -26t-22.5 -39.5t-8 -49zM373 182q0 34 11.5 64.5t31.5 52.5t46.5 35t56.5 13q31 0 58 -13t47 -35t32 -52.5t12 -64.5t-12 -64.5t-32 -53t-47 -35.5
t-58 -13q-30 0 -56.5 13t-46.5 35.5t-31.5 53t-11.5 64.5z" />
    <glyph glyph-name="Adieresis" unicode="&#xc4;" horiz-adv-x="596" 
d="M410 329l-107 288l-106 -288h213zM286 691h35l256 -691h-44l-108 287h-243l-106 -287h-44zM200 763q0 11 8.5 19t20.5 8q11 0 20 -8t9 -19t-9 -19t-20 -8q-12 0 -20.5 8t-8.5 19zM334 763q0 11 8.5 19t20.5 8q11 0 20 -8t9 -19t-9 -19t-20 -8q-12 0 -20.5 8t-8.5 19z" />
    <glyph glyph-name="Edieresis" unicode="&#xcb;" horiz-adv-x="485" 
d="M391 347h-305v-305h357l1 -42h-399l-1 691h399v-40h-357v-262h305v-42zM144 764q0 11 8.5 19t20.5 8q11 0 20 -8t9 -19t-9 -19t-20 -8q-12 0 -20.5 8t-8.5 19zM278 764q0 11 8.5 19t20.5 8q11 0 20 -8t9 -19t-9 -19t-20 -8q-12 0 -20.5 8t-8.5 19z" />
    <glyph glyph-name="Idieresis" unicode="&#xcf;" horiz-adv-x="138" 
d="M92 0h-42l-1 691h42zM-26 763q0 11 8.5 19t20.5 8q11 0 20 -8t9 -19t-9 -19t-20 -8q-12 0 -20.5 8t-8.5 19zM108 763q0 11 8.5 19t20.5 8q11 0 20 -8t9 -19t-9 -19t-20 -8q-12 0 -20.5 8t-8.5 19z" />
    <glyph glyph-name="Odieresis" unicode="&#xd6;" 
d="M530 570q-35 39 -83.5 60.5t-103.5 21.5q-56 0 -105.5 -24t-86.5 -65.5t-58 -97.5t-21 -120q0 -65 21 -121.5t57.5 -98.5t86 -66.5t106.5 -24.5q58 0 108.5 24.5t87 66.5t57.5 98.5t21 121.5q0 68 -23 125.5t-64 99.5zM561 88q-43 -47 -98.5 -72t-119.5 -25
q-63 0 -120 27t-100 74.5t-68.5 112.5t-25.5 140q0 73 24.5 136.5t67.5 111t100 75t122 27.5q67 0 124.5 -27.5t99.5 -74.5t66 -111t24 -137q0 -78 -25 -143.5t-71 -113.5zM247 764q0 11 8.5 19t20.5 8q11 0 20 -8t9 -19t-9 -19t-20 -8q-12 0 -20.5 8t-8.5 19zM381 764
q0 11 8.5 19t20.5 8q11 0 20 -8t9 -19t-9 -19t-20 -8q-12 0 -20.5 8t-8.5 19z" />
    <glyph glyph-name="Udieresis" unicode="&#xdc;" horiz-adv-x="598" 
d="M88 173q2 -29 19.5 -54.5t46 -44t66.5 -29.5t81 -11q41 0 78 11t65.5 29.5t45.5 44t19 54.5v518h42v-518q-2 -37 -22 -70t-54 -58t-79 -39.5t-95 -14.5q-52 0 -98 14.5t-80.5 39.5t-55.5 58t-24 70v518h45v-518zM201 763q0 11 8.5 19t20.5 8q11 0 20 -8t9 -19t-9 -19
t-20 -8q-12 0 -20.5 8t-8.5 19zM335 763q0 11 8.5 19t20.5 8q11 0 20 -8t9 -19t-9 -19t-20 -8q-12 0 -20.5 8t-8.5 19z" />
    <glyph glyph-name="Icircumflex" unicode="&#xce;" horiz-adv-x="138" 
d="M92 0h-42l-1 691h42z" />
    <glyph glyph-name="Iacute" unicode="&#xcd;" horiz-adv-x="154" 
d="M92 0h-42l-1 691h42zM83 744h-23l66 87h66z" />
    <glyph glyph-name="Igrave" unicode="&#xcc;" horiz-adv-x="131" 
d="M100 0h-42l-1 691h42zM-24 831h66l66 -87h-23z" />
    <glyph glyph-name="Ntilde" unicode="&#xd1;" horiz-adv-x="537" 
d="M88 691l358 -607v607h42l1 -691h-42l-359 610l1 -610h-41l-1 691h41zM370 731l-1 1q-15 21 -39.5 26.5t-44.5 -7.5h-1q-26 -18 -58.5 -16.5t-59.5 19.5l9 51q16 -20 39.5 -25.5t43.5 7.5h1q27 18 60 16.5t60 -20.5z" />
    <glyph glyph-name="onesuperior" unicode="&#xb9;" horiz-adv-x="263" 
d="M36 587l126 104h42v-300h-42v246l-96 -79z" />
    <glyph glyph-name="plus" unicode="+" horiz-adv-x="452" 
d="M248 121h-42v152h-151v42h151v151h42v-151h152v-42h-152v-152z" />
    <glyph glyph-name="hyphen" unicode="-" horiz-adv-x="421" 
d="M41 273v42h345v-42h-345z" />
    <glyph glyph-name="slash" unicode="/" horiz-adv-x="378" 
d="M91 0h-46l252 691h45z" />
    <glyph glyph-name="ampersand" unicode="&#x26;" horiz-adv-x="597" 
d="M248 0q-45 0 -83 15t-65.5 41t-43 60t-15.5 72q0 57 38.5 106.5t118.5 86.5l26 12l-18 21q-25 27 -40 47.5t-23 37t-10.5 30.5t-2.5 27q0 26 11 51t31.5 44.5t49 31.5t64.5 12q32 0 59 -10.5t46.5 -28.5t30 -42t10.5 -51q0 -44 -23 -82.5t-87 -77.5l-31 -19l159 -195
l18 26q12 17 25.5 38t18.5 45l34 -7q-12 -38 -33 -72t-38 -59q12 -18 20.5 -30t17 -22.5t17 -22t20.5 -27.5v-58q-14 15 -22 23.5t-15.5 17.5t-17.5 20t-28 31l-16 18l-15 -21q-35 -48 -84.5 -69t-103.5 -20zM391 562q0 44 -30.5 71.5t-76.5 27.5q-21 0 -41.5 -8.5t-36 -23
t-25.5 -33.5t-10 -40q1 -23 11 -43.5t29 -41.5l49 -56l22 12q27 15 47.5 33t34 36.5t20.5 36t7 29.5zM246 364q-87 -45 -126 -89t-39 -89q0 -28 13.5 -55t36 -48t53 -34t64.5 -13q45 -1 90 23.5t77 63.5l12 15z" />
    <glyph glyph-name="Otilde" unicode="&#xd5;" 
d="M530 570q-35 39 -83.5 60.5t-103.5 21.5q-56 0 -105.5 -24t-86.5 -65.5t-58 -97.5t-21 -120q0 -65 21 -121.5t57.5 -98.5t86 -66.5t106.5 -24.5q58 0 108.5 24.5t87 66.5t57.5 98.5t21 121.5q0 68 -23 125.5t-64 99.5zM561 88q-43 -47 -98.5 -72t-119.5 -25
q-63 0 -120 27t-100 74.5t-68.5 112.5t-25.5 140q0 73 24.5 136.5t67.5 111t100 75t122 27.5q67 0 124.5 -27.5t99.5 -74.5t66 -111t24 -137q0 -78 -25 -143.5t-71 -113.5zM446 732l-1 1q-15 21 -39.5 26.5t-44.5 -7.5h-1q-26 -18 -58.5 -16.5t-59.5 19.5l9 51
q16 -20 39.5 -25.5t43.5 7.5h1q27 18 60 16.5t60 -20.5z" />
    <glyph glyph-name="Eth" unicode="&#xd0;" horiz-adv-x="653" 
d="M43 274v42h68v375h255q50 -1 94 -28t76.5 -73.5t51.5 -109t19 -133.5t-18.5 -133.5t-51 -109t-76 -74t-93.5 -28.5l1 -2h-257l-1 274h-68zM153 649v-333h174v-42h-174v-232h215v2q41 1 77 25.5t62.5 65.5t42 95.5t15.5 116.5q0 61 -15.5 116t-42.5 96t-63 65t-78 25h-213
z" />
    <glyph glyph-name="plusminus" unicode="&#xb1;" horiz-adv-x="452" 
d="M248 308h-42v152h-151v42h151v151h42v-151h152v-42h-152v-152zM54 154v42h345v-42h-345z" />
    <glyph glyph-name="asterisk" unicode="*" horiz-adv-x="471" 
d="M257 388h-42v121l-86 -85l-30 29l86 87h-120v41h121l-86 86l29 30l86 -86v122h42v-122l86 86l30 -29l-86 -86h122v-42h-122l86 -87l-29 -29l-87 86v-122z" />
    <glyph glyph-name="multiply" unicode="&#xd7;" horiz-adv-x="367" 
d="M70 178l-30 29l107 108l-106 106l29 30l107 -107l107 107l30 -29l-107 -107l107 -108l-29 -29l-108 107z" />
    <glyph glyph-name="underscore" unicode="_" horiz-adv-x="513" 
d="M42 0l-1 42h420l1 -42h-420z" />
    <glyph glyph-name="backslash" unicode="\" horiz-adv-x="371" 
d="M44 691h45l254 -691h-46z" />
    <glyph glyph-name="endash" unicode="&#x2013;" horiz-adv-x="416" 
d="M41 273v42h345v-42h-345z" />
    <glyph glyph-name="emdash" unicode="&#x2014;" horiz-adv-x="532" 
d="M41 273v42h459v-42h-459z" />
    <glyph glyph-name="divide" unicode="&#xf7;" horiz-adv-x="425" 
d="M177 204h64v-64h-64v64zM177 451h64v-64h-64v64zM35 273v42h345v-42h-345z" />
    <glyph glyph-name="ellipsis" unicode="&#x2026;" horiz-adv-x="435" 
d="M42 64h64l1 -64h-64zM187 64h64l1 -64h-64zM332 64h64l1 -64h-64z" />
    <glyph glyph-name="at" unicode="@" horiz-adv-x="799" 
d="M487 -94q-41 -11 -86 -11q-72 0 -135.5 27.5t-110.5 74.5t-74.5 110.5t-27.5 135.5q0 73 27.5 136.5t74.5 110.5t110.5 74.5t135.5 27.5q69 0 129.5 -24.5t105 -67t70.5 -100t26 -123.5q0 -45 -10 -83.5t-22 -67.5q-14 -33 -31 -61q-15 -21 -35.5 -33.5t-42.5 -12.5
q-20 0 -35.5 8t-28.5 21t-22 28t-15 29q-8 -3 -23.5 -7.5t-33.5 -9t-36 -8.5t-31 -5q-17 -2 -39.5 3.5t-42.5 21t-33.5 42t-13.5 67.5q0 23 6 52q9 48 28.5 79t45 49.5t54.5 25.5t58 7q18 0 41.5 -1t43.5 -2q24 -2 48 -3q-14 -61 -22 -101l-13 -65t-7 -36.5t-2 -15.5v-5
q-2 -27 3.5 -50.5t16 -41.5t24.5 -28t29 -10q23 0 45 28v-1q13 23 24 52q9 25 17 58.5t8 74.5q0 58 -21.5 108t-59.5 87t-90 58t-113 21q-63 0 -118.5 -24t-97 -65.5t-65.5 -97.5t-24 -119t24 -118.5t65.5 -96.5t97 -65t118.5 -24q18 0 39.5 2.5t44.5 10.5zM458 140
q12 57 23.5 115t24.5 115q-11 1 -32 1t-52 1q-21 0 -41 -5t-36.5 -17.5t-29 -35t-19.5 -56.5q-3 -13 -4 -24t-1 -21q0 -25 6.5 -42t16.5 -27.5t22 -15.5t23 -5q27 -1 55.5 4.5t43.5 12.5z" />
    <glyph glyph-name="yen" unicode="&#xa5;" horiz-adv-x="681" 
d="M172 192h146v38h-146v44h146v39l-283 378h57l246 -338l250 338h56l-283 -378v-39h146v-44h-146v-38h146v-44h-146l1 -148h-43l-1 148h-146v44z" />
    <glyph glyph-name="sterling" unicode="&#xa3;" horiz-adv-x="556" 
d="M187 301v-259h337l1 -42h-379l-1 301h-120v42h120v348h42v-348h183v-42h-183z" />
    <glyph glyph-name="thorn" unicode="&#xfe;" horiz-adv-x="517" 
d="M104 469q27 17 65 28t83 11q50 -1 94 -21.5t76.5 -55t51.5 -81t19 -99.5q0 -54 -19 -101.5t-51.5 -82.5t-76.5 -55.5t-94 -20.5q-46 0 -82 12t-67 27v-226h-41v888h42v-223zM104 95q-1 -12 10 -23t31.5 -19.5t48 -13.5t58.5 -6q40 1 76 18.5t63 46.5t43 68.5t16 83.5
q0 43 -16 82t-43 68.5t-63 47t-76 17.5q-29 0 -55 -4t-46.5 -11.5t-33.5 -17.5t-16 -21z" />
    <glyph glyph-name="Oslash" unicode="&#xd8;" 
d="M561 88q-43 -47 -98.5 -72t-119.5 -25q-26 0 -51 5t-48 13l-2 -9h-46l9 27q-38 20 -70 52.5t-55.5 73.5t-37 90t-13.5 102q0 73 24.5 136.5t67.5 111t100 75t122 27.5q51 0 100 -17l5 13h45l-11 -30q82 -46 128.5 -128.5t46.5 -187.5q0 -78 -25 -143.5t-71 -113.5z
M530 570q-30 31 -63 50l-209 -571q40 -15 85 -15q58 0 108.5 24.5t87 66.5t57.5 98.5t21 121.5q0 68 -23 125.5t-64 99.5zM343 652q-56 0 -105.5 -24t-86.5 -65.5t-58 -97.5t-21 -120q0 -46 11 -88t30.5 -78t46.5 -65t59 -48l209 571q-41 15 -85 15z" />
    <glyph glyph-name="daggerdbl" unicode="&#x2021;" horiz-adv-x="408" 
d="M32 464h335v-44h-335v44zM32 297h335v-44h-335v44zM177 0l-1 691h44l1 -691h-44z" />
    <glyph glyph-name="logicalnot" unicode="&#xac;" horiz-adv-x="662" 
d="M622 163h-42v182h-539v42h581v-224z" />
    <glyph glyph-name="guilsinglright" unicode="&#x203a;" horiz-adv-x="343" 
d="M321 248l-244 -243l-30 31l215 212l-215 217l31 29z" />
    <glyph glyph-name="guillemotright" unicode="&#xbb;" horiz-adv-x="524" 
d="M321 278l-221 -264l-32 28l194 231l-233 196l28 32zM491 278l-221 -264l-32 28l194 231l-233 196l28 32z" />
    <glyph glyph-name="greater" unicode="&#x3e;" horiz-adv-x="336" 
d="M312 248l-244 -243l-30 31l215 212l-215 217l31 29z" />
    <glyph glyph-name="less" unicode="&#x3c;" horiz-adv-x="330" 
d="M271 494l31 -29l-215 -217l215 -212l-30 -31l-244 243z" />
    <glyph glyph-name="Thorn" unicode="&#xde;" horiz-adv-x="535" 
d="M104 469q27 17 65 28t83 11q50 -1 94 -21.5t76.5 -55t51.5 -81t19 -99.5q0 -54 -19 -101.5t-51.5 -82.5t-76.5 -55.5t-94 -20.5q-46 0 -82 12t-67 27v-226h-41v888h42v-223zM104 95q-1 -12 10 -23t31.5 -19.5t48 -13.5t58.5 -6q40 1 76 18.5t63 46.5t43 68.5t16 83.5
q0 43 -16 82t-43 68.5t-63 47t-76 17.5q-29 0 -55 -4t-46.5 -11.5t-33.5 -17.5t-16 -21z" />
    <glyph glyph-name="guilsinglleft" unicode="&#x2039;" horiz-adv-x="352" 
d="M290 494l31 -29l-215 -217l215 -212l-30 -31l-244 243z" />
    <glyph glyph-name="asciicircum" unicode="^" horiz-adv-x="551" 
d="M277 691l243 -244l-31 -30l-212 215l-217 -215l-29 31z" />
    <glyph glyph-name="circumflex" unicode="&#x2c6;" horiz-adv-x="268" 
d="M138 674l108 -107l-26 -25l-82 83l-83 -83l-24 26z" />
    <glyph glyph-name="Zcaron" unicode="&#x17d;" horiz-adv-x="548" 
d="M272 733l-108 107l26 25l82 -83l83 83l24 -26zM110 42h368l1 -42h-415h-29l404 649h-376v42h415h35z" />
    <glyph glyph-name="zcaron" unicode="&#x17e;" horiz-adv-x="452" 
d="M225 542l-108 107l26 25l82 -83l83 83l24 -26zM45 43l312 414h-309v43h364v-43l-312 -414h312l1 -43h-367z" />
    <glyph glyph-name="florin" unicode="&#x192;" horiz-adv-x="337" 
d="M293 652q-7 2 -17 2h-19q-22 -1 -41 -12t-33.5 -30t-22.5 -44t-8 -53v-26h132v-43h-132l1 -446h-39q-1 84 -1 166v280h-76v43h74v38q2 34 14 64.5t31.5 53.5t45.5 36.5t55 13.5h24.5t23.5 -2z" />
    <glyph glyph-name="Scaron" unicode="&#x160;" horiz-adv-x="485" 
d="M241 733l-108 107l26 25l82 -83l83 83l24 -26zM79 112q24 -36 64 -57.5t93 -21.5q32 0 61.5 10.5t51.5 28.5t35 43t13 54t-11.5 54.5t-32 46t-48 33.5t-59.5 17h-3q-43 4 -79.5 20.5t-63 42t-41.5 58.5t-15 69q0 39 16.5 73t45.5 58.5t68 38.5t83 14q57 0 102 -20t77 -57
l-34 -27q-25 30 -62.5 47.5t-82.5 17.5q-33 0 -63.5 -11t-54 -30t-37.5 -44.5t-14 -55.5q0 -29 12 -55.5t33.5 -47t51 -34t63.5 -16.5q42 -6 77.5 -22.5t61.5 -41.5t40.5 -57t14.5 -67q0 -38 -16.5 -71.5t-44.5 -58t-66 -38.5t-81 -14q-61 0 -110.5 26t-78.5 68z" />
    <glyph glyph-name="scaron" unicode="&#x161;" horiz-adv-x="417" 
d="M208 542l-108 107l26 25l82 -83l83 83l24 -26zM340 418q-23 22 -56 33.5t-70 11.5q-51 0 -85.5 -24t-34.5 -62q0 -18 9 -35t25.5 -31.5t39.5 -24.5t50 -14q34 -5 63 -19t50 -33.5t32.5 -44t11.5 -51.5q0 -30 -13 -54t-35.5 -41.5t-52 -27t-62.5 -9.5q-47 0 -90.5 17
t-69.5 48l32 25q21 -21 54 -35t71 -14q52 0 88 25t36 66q0 19 -9 36.5t-25.5 32.5t-39 25.5t-49.5 14.5q-35 5 -64 19t-50 33.5t-33 43.5t-12 50q0 28 13.5 51.5t36.5 40t53 25.5t64 9q47 0 88.5 -17.5t67.5 -44.5z" />
    <glyph glyph-name="ecircumflex" unicode="&#xea;" horiz-adv-x="456" 
d="M241 33q21 0 42.5 3.5t41 9.5t36.5 14t28 16l17 -39q-24 -18 -62.5 -29t-77.5 -16h-1q-6 -1 -12.5 -1h-13.5q-42 0 -78.5 18.5t-65 51t-46 76t-20.5 93.5v19q0 53 16 100t43 82t63 55.5t77 20.5q42 0 78 -17.5t62.5 -49.5t41.5 -76.5t15 -98.5v-24h-353q2 -42 16.5 -79.5
t37 -66t52.5 -45.5t63 -17zM385 282q-3 40 -16.5 73.5t-34.5 57.5t-48 37.5t-58 13.5q-30 0 -57 -13.5t-48 -37.5t-34.5 -57.5t-16.5 -73.5h313zM226 674l108 -107l-26 -25l-82 83l-83 -83l-24 26z" />
    <glyph glyph-name="Atilde" unicode="&#xc3;" horiz-adv-x="596" 
d="M389 753l-1 1q-15 21 -39.5 26.5t-44.5 -7.5h-1q-26 -18 -58.5 -16.5t-59.5 19.5l9 51q16 -20 39.5 -25.5t43.5 7.5h1q27 18 60 16.5t60 -20.5zM410 329l-107 288l-106 -288h213zM286 691h35l256 -691h-44l-108 287h-243l-106 -287h-44z" />
    <glyph glyph-name="AE" unicode="&#xc6;" horiz-adv-x="1081" 
d="M541 651h-229l-115 -322h335zM549 691h382v-40h-357v-262h305v-42h-305v-305h357l1 -42h-399l-1 287h-350l-106 -287h-44l254 691h263z" />
    <glyph glyph-name="acircumflex" unicode="&#xe2;" horiz-adv-x="406" 
d="M331 41q-23 -23 -54 -36.5t-66 -13.5q-33 0 -62.5 12t-51 32.5t-34.5 48t-13 57.5q0 31 13 59t34.5 49t51 33t62.5 12h120v21v10q0 28 -7.5 53.5t-21.5 44t-33 30t-41 12.5h-1q-16 0 -27 -1t-20 -3.5t-18.5 -5.5t-22.5 -7l-10 39q14 5 24.5 8.5t21 6t23 3.5t29.5 1h1
q30 -1 55.5 -14.5t45 -36.5t31 -53.5t13.5 -65.5v-11q-1 -89 -1 -159q0 -30 -0.5 -59t-0.5 -52.5v-38.5v-16h-40v41zM331 251q-44 0 -68 0.5t-35 0.5h-13.5h-3.5q-24 0 -46 -9t-38 -24t-25.5 -35t-9.5 -43t9.5 -42.5t25.5 -34t38 -23t46 -8.5q25 0 46.5 8.5t38 23t26 34.5
t9.5 43v109zM239 674l108 -107l-26 -25l-82 83l-83 -83l-24 26z" />
    <glyph glyph-name="germandbls" unicode="&#xdf;" horiz-adv-x="520" 
d="M256 651h-161v-262h179q30 1 55.5 11.5t44.5 28t30 41.5t11 51q0 25 -11 48t-30 41t-44.5 28.5t-55.5 12.5h-18zM95 -173h-42v864h42h179q38 -1 71.5 -15t58 -37t39 -53.5t14.5 -64.5q0 -51 -27 -91.5t-72 -63.5q52 -22 82.5 -68t30.5 -102q0 -39 -15 -74t-41.5 -61.5
t-62.5 -42t-78 -16.5h-85l-40 40h125q32 1 60.5 14t49.5 34t33 48t12 58q0 30 -12.5 56.5t-35 47t-54.5 33t-71 14.5h-161v-520z" />
    <glyph glyph-name="guillemotleft" unicode="&#xab;" horiz-adv-x="532" 
d="M463 501l28 -32l-233 -196l194 -231l-32 -28l-221 264zM293 501l28 -32l-233 -196l194 -231l-32 -28l-221 264z" />
    <glyph glyph-name="ucircumflex" unicode="&#xfb;" horiz-adv-x="450" 
d="M355 70q-23 -35 -59 -57t-79 -22q-35 0 -65 14.5t-52.5 39.5t-35.5 58.5t-14 71.5l-3 325h41l2 -325q1 -29 11 -54.5t27 -45t40 -30.5t50 -11q25 0 48.5 10t42 27t31 40t15.5 49v340h42v-452v-48h-41zM223 674l108 -107l-26 -25l-82 83l-83 -83l-24 26z" />
    <glyph glyph-name="ocircumflex" unicode="&#xf4;" horiz-adv-x="513" 
d="M64 247q0 -44 15 -83.5t41.5 -68.5t61.5 -46t75 -17q39 0 73.5 17t60 46t40.5 68.5t15 83.5q0 45 -15 84.5t-40.5 69t-60 46.5t-73.5 17q-40 0 -75 -17t-61.5 -46.5t-41.5 -69t-15 -84.5zM22 247q0 54 18.5 101t50.5 82t75 55.5t91 20.5t90 -20.5t73.5 -55.5t50 -82
t18.5 -101q0 -53 -18.5 -99.5t-50 -81.5t-73.5 -55.5t-90 -20.5t-91 20.5t-75 55.5t-50.5 81.5t-18.5 99.5zM255 674l108 -107l-26 -25l-82 83l-83 -83l-24 26z" />
    <glyph glyph-name="eth" unicode="&#xf0;" horiz-adv-x="489" 
d="M38 488q0 43 16.5 80.5t44.5 66t66 45t81 16.5t81 -16t66 -43t44.5 -63.5t18.5 -78.5v-3q3 -41 3 -84v-84q0 -40 -2.5 -78.5t-9.5 -74.5q-8 -39 -28 -72t-49 -56.5t-65.5 -36.5t-76.5 -13q-50 0 -94.5 23t-73.5 59l41 33q24 -34 59.5 -53t74.5 -19q33 0 62 11t52 30.5
t38.5 46.5t22.5 58q5 37 8 76.5t3 81.5v34q-28 -42 -74 -66.5t-103 -24.5q-41 0 -78 15.5t-65 42t-45 62.5t-18 78v7zM78 483q2 -33 15.5 -62t36 -50.5t52 -34t62.5 -12.5q36 0 67 13t54 35.5t36 53t13 65.5q0 33 -13.5 62.5t-37 51.5t-53.5 35t-63 13q-36 0 -66.5 -14
t-53.5 -37t-36 -54t-13 -65z" />
    <glyph glyph-name="icircumflex" unicode="&#xee;" horiz-adv-x="177" 
d="M65 500h41l1 -500h-41zM87 674l108 -107l-26 -25l-82 83l-83 -83l-24 26z" />
    <glyph glyph-name="numbersign" unicode="#" horiz-adv-x="714" 
d="M68 265h106l52 143h-194l35 44h175l71 192h45l-70 -192h240l71 192h45l-70 -192h116l-35 -44h-97l-53 -143h186l-36 -44h-166l-79 -221h-46l80 221h-241l-79 -221h-46l80 221h-126zM219 265h241l52 143h-240z" />
    <glyph glyph-name="atilde" unicode="&#xe3;" horiz-adv-x="406" 
d="M332 572l-1 1q-15 18 -39.5 22.5t-44.5 -6.5h-1q-26 -15 -58.5 -13.5t-59.5 16.5l9 43q16 -17 39.5 -21.5t43.5 6.5h1q27 15 60 13.5t60 -17.5zM331 41q-23 -23 -54 -36.5t-66 -13.5q-33 0 -62.5 12t-51 32.5t-34.5 48t-13 57.5q0 31 13 59t34.5 49t51 33t62.5 12h120v21
v10q0 28 -7.5 53.5t-21.5 44t-33 30t-41 12.5h-1q-16 0 -27 -1t-20 -3.5t-18.5 -5.5t-22.5 -7l-10 39q14 5 24.5 8.5t21 6t23 3.5t29.5 1h1q30 -1 55.5 -14.5t45 -36.5t31 -53.5t13.5 -65.5v-11q-1 -89 -1 -159q0 -30 -0.5 -59t-0.5 -52.5v-38.5v-16h-40v41zM331 251
q-44 0 -68 0.5t-35 0.5h-13.5h-3.5q-24 0 -46 -9t-38 -24t-25.5 -35t-9.5 -43t9.5 -42.5t25.5 -34t38 -23t46 -8.5q25 0 46.5 8.5t38 23t26 34.5t9.5 43v109z" />
    <glyph glyph-name="bracketleft" unicode="[" horiz-adv-x="210" 
d="M149 47q0 -5 17 -5l1 -42q-9 0 -19.5 3.5t-20 9.5t-15.5 14.5t-6 19.5v242q0 20 -12.5 32.5t-31.5 12.5h-20v42h20q19 0 31.5 13t12.5 32v225v2v3q3 18 20.5 29t39.5 11v-43q-17 0 -17 -2v-237q-5 -13 -16.5 -23t-26.5 -10v-42q15 0 26.5 -8.5t16.5 -23.5v-255v0z" />
    <glyph glyph-name="bracketright" unicode="]" horiz-adv-x="183" 
d="M48 302q3 15 14 23.5t26 8.5l2 42q-17 0 -28 10t-14 23v237q-3 2 -20 2v43q26 0 41.5 -11.5t18.5 -28.5l2 -3v-2v-225q0 -19 11.5 -32t29.5 -13h21v-42h-21q-18 0 -29.5 -12.5t-11.5 -32.5v-242q0 -20 -20 -33.5t-41 -13.5l-1 42q8 0 13 1.5t7 3.5v255z" />
    <glyph glyph-name="percent" unicode="%" horiz-adv-x="773" 
d="M568 691h50l-401 -690h-48zM91 506q0 -25 8.5 -47.5t23 -39.5t34 -27t41.5 -10q21 0 40 10t33 27t22.5 39.5t8.5 47.5q0 26 -8.5 49t-22.5 39.5t-33 26t-40 9.5q-22 0 -41.5 -9.5t-34 -26t-23 -39.5t-8.5 -49zM49 506q0 34 11.5 64.5t32 53t47.5 35.5t58 13q30 0 57 -13
t46.5 -35.5t31 -53t11.5 -64.5t-11.5 -64.5t-31 -53t-46.5 -35.5t-57 -13q-31 0 -58 13t-47.5 35.5t-32 53t-11.5 64.5zM476 169q0 -26 8 -48.5t22.5 -39.5t33.5 -26.5t40 -9.5q22 0 41.5 9.5t34 26.5t23 39.5t8.5 48.5t-8.5 49t-23 39.5t-34 26t-41.5 9.5q-21 0 -40 -9.5
t-33.5 -26t-22.5 -39.5t-8 -49zM434 169q0 34 11.5 64.5t31.5 52.5t46.5 35t56.5 13q31 0 58 -13t47 -35t32 -52.5t12 -64.5t-12 -64.5t-32 -53t-47 -35.5t-58 -13q-30 0 -56.5 13t-46.5 35.5t-31.5 53t-11.5 64.5z" />
    <glyph glyph-name="Ocircumflex" unicode="&#xd4;" 
d="M530 570q-35 39 -83.5 60.5t-103.5 21.5q-56 0 -105.5 -24t-86.5 -65.5t-58 -97.5t-21 -120q0 -65 21 -121.5t57.5 -98.5t86 -66.5t106.5 -24.5q58 0 108.5 24.5t87 66.5t57.5 98.5t21 121.5q0 68 -23 125.5t-64 99.5zM561 88q-43 -47 -98.5 -72t-119.5 -25
q-63 0 -120 27t-100 74.5t-68.5 112.5t-25.5 140q0 73 24.5 136.5t67.5 111t100 75t122 27.5q67 0 124.5 -27.5t99.5 -74.5t66 -111t24 -137q0 -78 -25 -143.5t-71 -113.5zM344 865l108 -107l-26 -25l-82 83l-83 -83l-24 26z" />
    <glyph glyph-name="Ecircumflex" unicode="&#xca;" horiz-adv-x="485" 
d="M391 347h-305v-305h357l1 -42h-399l-1 691h399v-40h-357v-262h305v-42zM242 865l108 -107l-26 -25l-82 83l-83 -83l-24 26z" />
    <glyph glyph-name="Aring" unicode="&#xc5;" horiz-adv-x="596" 
d="M410 329l-107 288l-106 -288h213zM286 691h35l256 -691h-44l-108 287h-243l-106 -287h-44z" />
    <glyph glyph-name="Ucircumflex" unicode="&#xdb;" horiz-adv-x="598" 
d="M88 173q2 -29 19.5 -54.5t46 -44t66.5 -29.5t81 -11q41 0 78 11t65.5 29.5t45.5 44t19 54.5v518h42v-518q-2 -37 -22 -70t-54 -58t-79 -39.5t-95 -14.5q-52 0 -98 14.5t-80.5 39.5t-55.5 58t-24 70v518h45v-518zM298 865l108 -107l-26 -25l-82 83l-83 -83l-24 26z" />
    <glyph glyph-name="copyright" unicode="&#xa9;" horiz-adv-x="833" 
 />
    <glyph glyph-name="currency" unicode="&#xa4;" horiz-adv-x="833" 
 />
    <glyph glyph-name="registered" unicode="&#xae;" horiz-adv-x="833" 
 />
    <glyph glyph-name="mu" unicode="&#xb5;" horiz-adv-x="496" 
d="M126 -195h-41v695h42v-361q0 -9 12 -26.5t31.5 -35t44 -30.5t49.5 -13q27 0 50 11t40 30.5t27 45t11 54.5l2 325h41l-3 -325q-1 -38 -14 -71.5t-35.5 -58.5t-52.5 -39.5t-65 -14.5q-43 0 -79 22t-59 57z" />
  </font>
</defs>
</svg>
