<?xml version="1.0" standalone="no"?>
<!DOCTYPE svg PUBLIC "-//W3C//DTD SVG 1.1//EN" "http://www.w3.org/Graphics/SVG/1.1/DTD/svg11.dtd" >
<svg>
<metadata>
Created by FontForge 20110222 at Mon Mar  7 04:36:33 2011
 By www-data
(c) Hans J. Zinken 1994-96
</metadata>
<defs>
<font id="HansHand" horiz-adv-x="405" >
  <font-face 
    font-family="HansHand"
    font-weight="400"
    font-style="italic"
    font-stretch="normal"
    units-per-em="1000"
    panose-1="0 0 5 0 0 0 0 0 0 0"
    ascent="800"
    descent="-200"
    x-height="450"
    cap-height="839"
    bbox="-438 -647 1170 1117"
    underline-thickness="50"
    underline-position="-75"
    slope="-15"
    unicode-range="U+0020-2122"
  />
    <missing-glyph />
    <glyph glyph-name="space" unicode=" " horiz-adv-x="293" 
 />
    <glyph glyph-name="space" unicode="&#xa0;" horiz-adv-x="293" 
 />
    <glyph glyph-name="exclam" unicode="!" horiz-adv-x="381" 
d="M89 61q-5 -9 -14 -11q-6 -2 -12 -6.5t-17 -18.5q-6 -6 -11 -16t-5 -18q0 -9 6.5 -14.5t21.5 -5.5q27 0 48 16t26 41l1 2q3 13 3 18q0 11 -16 13q-7 0 -16 3q-5 2 -7 2q-5 0 -8 -5zM150 216q0 -15 23 -15q12 0 34 4q10 2 13.5 6t7.5 15q9 25 23 47q21 122 83.5 253
t156.5 275q-12 13 -19 13q-4 0 -9 -3q-7 -5 -15 -5q-2 0 -6 1h-6q-13 0 -29 -15q-102 -150 -168.5 -295.5t-88.5 -280.5z" />
    <glyph glyph-name="quotedbl" unicode="&#x22;" horiz-adv-x="351" 
d="M495 721q-9 -14 -24 -36q-14 -19 -19.5 -29.5t-6.5 -22.5q0 -14 7 -14q2 0 9 3t10 3h6q7 1 11 3t10 11q7 11 19 21q14 11 22 24q18 29 42 60q18 23 23 37q3 11 18 25q12 12 12 18q0 9 -11 9q-7 0 -18 -4q-16 -5 -28 -12.5t-23.5 -19t-24 -28.5t-34.5 -48zM556 850
q-37 0 -57.5 -15.5t-55.5 -60.5q-3 -2 -15 -18q-34 -42 -51.5 -66t-37.5 -60q-5 -6 -5 -10q0 -5 8 -5q12 0 34 10q14 6 37 31t51 64q20 26 55 74q23 30 31 41t8 14q0 1 -2 1z" />
    <glyph glyph-name="numbersign" unicode="#" horiz-adv-x="903" 
d="M561 362q6 6 27 9q14 1 19 2q23 6 40.5 7.5t46.5 2.5q44 2 72 4l5 1q13 2 18.5 4t10.5 9q8 9 8 15q0 7 -18 9q-15 1 -58 9q-34 6 -59.5 9.5t-47.5 3.5q12 16 25.5 33t26.5 31.5t24.5 23t17.5 8.5q7 4 28 5.5t65 2.5q23 1 40 2t23 2q22 -17 38 -17q8 0 24 5l15 5
q18 8 25 14.5t7 12.5q0 5 -3 13q-2 8 -3 10q3 8 3 12q0 8 -18 9q-73 12 -108.5 16t-66.5 4h-18q-14 -1 -19 -1q8 9 14.5 33t6.5 44q0 17 -5 21q-6 6 -18 6q-22 0 -52 -16.5t-43 -33.5q-8 -13 -8 -25q0 -4 2 -12q1 -7 1 -11q0 -12 -15 -24q-2 -2 -6 -2t-14 5q-13 5 -19 5
q-5 -2 -8 -2q-4 0 -4 5q0 4 4 17q8 29 9 47l4 12q6 19 6 23q0 6 -6 6q-4 0 -25 -7q-3 -1 -4 -1q-10 -2 -14.5 -4.5t-8.5 -6.5q-3 -4 -7 -7q-9 -16 -23 -56q-13 -36 -21 -50q-1 0 -5 1h-6q-8 0 -20.5 -3t-38.5 -10q-48 -13 -98 -25q-21 -6 -50 -13q-18 -4 -32 -7.5t-34 -11.5
q-25 -10 -38.5 -27t-14.5 -36q0 -4 7 -15q8 -14 8 -22q0 -13 12 -15q7 -3 14 -3q24 0 24 29q0 22 3.5 29.5t17.5 14.5q52 22 95.5 32.5t118.5 14.5q-21 -27 -49 -75q-23 -40 -34 -51q-3 -2 -30 -6.5t-65 -9.5t-71.5 -8.5t-47.5 -3.5q-19 6 -41 6q-26 0 -54.5 -7.5
t-68.5 -21.5q-15 -5 -22 -7q-4 2 -7 2q-8 0 -14 -10q-2 -1 -2 -2q-9 -9 -14.5 -20.5t-5.5 -19.5q0 -5 2 -7q2 -3 43 -3q39 0 81.5 3.5t62.5 9.5q57 22 107.5 32t111.5 10q-10 -19 -24.5 -43t-33.5 -55q-28 -45 -40.5 -66.5t-12.5 -30.5q3 -7 12 -7h6q4 1 7 1q2 0 3 -1h4
q28 0 40 13q22 27 33.5 43t25.5 37t29 47t35 63q3 3 21 3q22 0 22 -3q-12 -29 -38 -80q-36 -75 -54 -122t-18 -91q0 -4 1 -9v-9q1 -7 9 -7q6 0 18 3t16 3q19 0 27.5 12t14.5 39q17 67 44.5 130t71.5 144zM550 459q-11 -13 -17 -17t-11 -4h-4q-4 1 -6 1q-10 0 -22 -5
q-8 -3 -12 -3q-3 0 -3 2q0 7 33 54q21 32 37 55q7 13 17 13q4 0 14 -4q6 -2 10 -3q3 0 9 -1q13 -1 13 -6t-13 -27q-3 -4 -14 -19t-16.5 -21.5t-14.5 -14.5z" />
    <glyph glyph-name="dollar" unicode="$" horiz-adv-x="732" 
d="M322 141q-2 0 -2 2q0 6 24 50q19 37 34.5 68.5t31.5 70.5q3 11 11 11q5 0 24 -7q1 0 4 -1q44 -16 73 -27.5t44 -19t23 -14t12 -15.5q2 -6 7 -15q6 -10 6 -16q0 -8 -6 -19q-12 -21 -39 -34t-64.5 -20t-78 -9.5t-104.5 -4.5zM236 158q-82 15 -135.5 34t-112.5 66
q-6 0 -16 1h-12q-32 0 -40 -10.5t-8 -41.5q0 -21 11 -35t40 -27t79 -27.5t155 -42.5q-10 -16 -16 -27t-10.5 -23t-8.5 -27t-16 -58l-9 -30q-3 -18 -11 -39q-5 -12 -5 -18q0 -7 5 -15.5t18 -22.5q1 -1 2 -4q2 -3 3 -3q2 0 6 8t14 31q18 37 34 66t36 63q18 32 30.5 54t26.5 49
q93 3 159.5 9t116.5 21q54 15 97 44t45 57q0 6 1 14v14q0 27 -7 50.5t-25 42.5q-20 19 -39 33.5t-42.5 26.5t-55 24.5t-83.5 30.5q20 22 32 42t26 49l5 11q11 24 17 33t12 9q4 0 13 -5q12 -6 21 -9q13 -3 19 -3q9 0 13.5 4.5t15.5 19.5q1 1 1 2q12 20 12 36q0 31 -41 50
q-8 4 -8 10q0 7 17 30l10 18q47 84 66 118t31 59.5t17 41.5t5 29v8q-1 7 -1 9q-1 25 -14 33.5t-34 10.5q-5 1 -7 1q-6 0 -16 -12q-16 -18 -29 -22q-22 -6 -32 -38t-18 -107q-4 -35 -8 -56.5t-10 -36.5t-14.5 -28t-24.5 -35q-8 -18 -31 -18h-7q-6 1 -9 1q-19 0 -57 -5
t-84 -15.5t-93 -27t-82 -38.5q-14 -9 -30.5 -25t-30.5 -36t-23 -40.5t-9 -36.5q1 -20 7 -31t23 -20t45 -17t105 -28q64 -17 71 -19q-4 -7 -18 -34.5t-28.5 -57.5t-29 -61t-22.5 -51zM476 615q-26 -39 -48 -77t-35 -64v-1q-5 -9 -8 -9t-12 3l-16 4l-25 7q-69 20 -91 28.5
t-33 23.5q-6 8 -6 16q0 10 10 16q44 33 86 44.5t95 11.5q24 0 79 -3h4z" />
    <glyph glyph-name="percent" unicode="%" horiz-adv-x="548" 
d="M363 94q3 16 4 19q4 21 7 32.5t6.5 18t9 11t18.5 11.5q4 3 7 5q10 7 15 7q7 0 15 -7q11 -7 11 -14q0 -5 -7 -17q-2 -3 -4 -7l-7 -13q-14 -24 -26 -32.5t-49 -13.5zM334 9q8 3 12 5q39 14 67 28.5t57 38.5q11 19 32 63q16 37 25 52q21 32 21 50q0 11 -8 16.5t-21 7.5h-5
q-3 1 -5 1q-11 0 -31 -5q-17 -3 -24 -3q-10 0 -17 5q-15 8 -35 8q-25 0 -35 -9q-11 -12 -18.5 -17t-16.5 -8q-14 -5 -26 -17.5t-35 -53.5q6 0 15 4q4 3 6 3q-4 -11 -9 -32q-6 -20 -11 -36.5t-13 -37.5q-10 -27 -10 -43q0 -28 34 -28q18 0 51 8zM229 669q-10 -10 -17 -16
t-17 -11.5t-27 -12t-48 -17.5q-21 -4 -31 -4q-12 0 -12 5q0 4 8 16l1 1q13 28 26 41.5t39 26.5q20 16 31 16t20 -9.5t27 -35.5zM558 648q21 26 21 43q0 11 -6.5 22t-21.5 29q-11 17 -25 17q-15 0 -44 -21q-1 -3 -10 -3q-19 -1 -56 -5.5t-108 -18.5q-4 10 -8 26q-7 22 -15 31
t-31 9q-25 -9 -42 -9q-11 0 -18 2.5t-14 8.5q-7 5 -11 5q-6 0 -14 -8q-16 -16 -46 -38q-31 -23 -50 -43t-37 -57l-3 -6q-23 -43 -23 -55q0 -14 18 -27q14 -10 41 -10q26 0 60.5 9t69.5 24q9 4 28 17q23 16 43 26.5t49 17.5q33 5 83 18q43 12 62 12q1 0 7 -1h6
q-34 -40 -107 -124q-50 -58 -74 -86t-46 -56.5t-43.5 -61.5t-49.5 -79q-35 -59 -56.5 -92.5t-53.5 -82.5q-21 -31 -27 -42t-6 -17v-3q1 -1 1 -2q5 -10 22 -10q25 0 67 18q24 12 34 24t11 33v2q-1 6 -5 8.5t-21 3.5q77 111 135.5 191t109.5 141.5t99 113t105 106.5z" />
    <glyph glyph-name="ampersand" unicode="&#x26;" horiz-adv-x="761" 
d="M458 135q21 7 28.5 11t12.5 9q2 1 3 2q13 12 33 25t55 33q48 29 65 41q8 7 13.5 9.5t10.5 2.5q6 1 9.5 4t8.5 13q53 30 53 32q-3 0 -47 -19q-43 -19 -48 -21q-34 -13 -79 -35q-24 -12 -34 -15q-32 -13 -79 -45q-30 -20 -41 -24q-17 10 -38 26q-19 15 -32 22q-11 7 -28 21
q-23 20 -45 30q40 27 73.5 56t57.5 56q44 56 44 107q0 22 -8 43q-10 19 -34 28.5t-57 9.5t-69 -10t-66 -29q-36 -21 -56.5 -38.5t-30 -34t-13.5 -34.5t-6 -49q-2 -20 -2 -35q0 -32 9 -56t31 -53q-53 -47 -85 -82.5t-46.5 -59.5t-18 -38t-3.5 -30q0 -23 10 -39t36 -18
q5 0 10 -1h8q20 0 43.5 9.5t78.5 41.5q13 9 22 13l18 8q8 3 16 6.5t20 11.5q15 11 39 20q14 5 25.5 11t26.5 16q21 -14 34 -20.5t30 -12.5q22 -8 36 -16q14 -7 37 -11t56 -8q34 -4 42 -7q15 -5 32 -5q38 0 86 25q2 1 11 6q14 7 22 14t11 19q3 13 3 19q0 9 -5 9q-1 0 -6 -2
q-5 -3 -8 -3q-25 -11 -45 -11q-19 0 -77 10q-18 3 -23 4q-63 11 -87.5 17.5t-42.5 20.5zM316 112q-52 -30 -88.5 -48.5t-58.5 -27t-36 -11.5t-26 -3q-12 2 -14.5 5t-4.5 18q-1 2 -1 4v6v5q0 29 21.5 57t82.5 75q22 -19 50.5 -37.5t74.5 -42.5zM350 464q6 -16 6 -31
q0 -19 -8.5 -37.5t-26.5 -44.5q-4 -6 -35 -28q-30 -21 -49 -36q-18 11 -26 25t-8 48q0 31 7 85q2 11 5 15t9 6q12 5 21 14q6 4 22 4q24 0 52.5 -7t30.5 -13z" />
    <glyph glyph-name="quotesingle" unicode="'" horiz-adv-x="182" 
d="M318 538q46 63 75.5 124.5t38.5 119.5q-2 3 -7 11q-11 17 -18 17q-42 -40 -52 -54t-11 -34q-3 -31 -17.5 -69t-41.5 -77q-4 -7 -7 -15.5t-3 -16.5q0 -16 17 -16q4 1 10 1q10 1 16 9z" />
    <glyph glyph-name="parenleft" unicode="(" horiz-adv-x="342" 
d="M38 205q-13 -25 -18.5 -47t-5.5 -42q0 -14 3 -30q6 -53 12 -85.5t13.5 -50t16.5 -27t27 -22.5q6 -2 21 -2q33 0 68.5 7.5t49.5 22.5q5 11 12 25q9 18 9 22q0 5 -6 6.5t-26 3.5q-18 1 -32 3q-11 1 -26 9t-29.5 23t-23.5 38.5t-9 54.5q0 23 5 48q22 80 34 119.5t25.5 70
t33 62t55.5 84.5q19 29 31.5 46t19 24.5t9 9.5t5.5 2q4 0 10.5 8t26.5 39q32 46 52.5 67.5t43.5 40.5q14 11 22.5 19t19.5 22q15 18 24.5 28t17 16t13 8.5t17.5 5.5l21 7q27 10 47 27.5t20 31.5q0 27 -45 27q-14 0 -25 -4t-32 -16q-7 -4 -18 -10q-51 -36 -102 -84t-126 -126
q-30 -32 -44 -46q-8 -8 -20 -34l-3 -7q-22 -43 -37 -72t-23.5 -44t-13 -21.5t-9.5 -12.5q-4 -5 -8.5 -13t-14.5 -29t-27.5 -61.5t-60.5 -141.5z" />
    <glyph glyph-name="parenright" unicode=")" horiz-adv-x="417" 
d="M335 255q44 48 65 126t48 249q6 37 13 78q2 8 5 19q13 54 13 82q0 33 -2.5 54t-11.5 37.5t-27.5 29.5t-50.5 24q-5 4 -9 4q-6 0 -29 -26q-3 -3 -4 -5q-20 -23 -20 -45q0 -20 16 -54q27 -52 27 -121q0 -32 -6 -63l-33 -200q-34 -92 -94.5 -175.5t-157.5 -158.5
q-8 -7 -23 -27t-42 -59q-50 -71 -80 -111q-8 -9 -8 -13q0 -3 5 -7q5 -3 7 -6q0 -1 1 -2q5 -10 8 -10q5 0 17 13q21 10 38 26.5t44 48.5q46 55 82 88q16 13 44 39.5t59 57t61 61t45 46.5z" />
    <glyph glyph-name="asterisk" unicode="*" horiz-adv-x="476" 
d="M527 684q-57 0 -80 -1t-34 -4q-31 -8 -50.5 -17.5t-20.5 -24.5q0 -11 8.5 -16t21.5 -5t27 3q12 3 33 5t52 2q-15 -6 -33 -24.5t-20 -28.5q-11 -25 -11 -31q0 -2 1 -2q3 0 11 5q14 10 21 10q14 0 22 4t22 16q15 12 27 21q-1 -12 -4 -43q-3 -29 -3 -38q0 -19 11 -19
q19 0 30 3t27 11q19 9 34 14q6 42 11 63.5t13 26.5q3 4 31 6q24 2 42.5 5.5t32.5 11.5q21 7 21 15t-28 21q-10 -2 -37 -2t-63 2q12 5 32 17.5t58 38.5q6 5 10 9q22 21 22 27q0 8 -20 11q-7 3 -12 3q-8 0 -25 -8t-64 -33q1 5 5 28q4 25 4 33q0 10 -6 13t-24 3q-16 0 -26 -6
t-27 -24q-9 -10 -20 -20q-8 -5 -9.5 -9.5t-4.5 -25.5q-4 -21 -8 -46z" />
    <glyph glyph-name="plus" unicode="+" horiz-adv-x="420" 
d="M1 299q-8 -9 -8 -18q0 -7 8.5 -12t25.5 -5q5 0 17 1q43 3 56 3q19 0 19 -6q0 -2 -2 -5q-21 -58 -28 -80.5t-7 -30.5q0 -7 4 -10q2 -9 18 -9q10 0 51 5h5q1 -1 3 -1q8 0 11 9q2 6 4 8q17 31 27.5 53t18.5 42q6 15 9 19t11 4q28 4 68 6q34 2 54.5 5.5t43.5 14.5q4 2 12 4
q8 1 11 4t3 13q0 13 2 19t9 12q-46 0 -78.5 -1.5t-63.5 -3.5q-18 -1 -24 -1q-10 0 -10 3q0 2 3 6l26 43q34 59 42.5 75t8.5 23q0 1 -1 3v3q-8 10 -16 10t-24 -5q-8 3 -15 3q-23 0 -46 -26.5t-68 -94.5l-28 -42q-23 5 -42 5q-60 0 -110 -45z" />
    <glyph glyph-name="comma" unicode="," horiz-adv-x="352" 
d="M209 127q0 6 -9 6q-8 0 -20.5 -5t-22.5 -11q-28 -15 -28 -48q10 -61 10 -84q0 -26 -10 -44.5t-35 -39.5q-9 -8 -18 -20q-8 -10 -15 -12q-9 -3 -15.5 -7t-13.5 -13q-7 -5 -16 -14q-8 -9 -14 -13q16 -3 25 -3q14 0 32 7.5t53 27.5q10 6 28 16q19 10 28 16.5t14 16.5
q23 36 30 53t7 45q0 17 -3 48q-3 21 -3.5 31t-1.5 21q-1 19 -2 26z" />
    <glyph glyph-name="hyphen" unicode="-" horiz-adv-x="336" 
d="M295 236q19 0 26 3.5t11 10.5q6 10 18 12q9 2 9 14q0 7 1 17v5q0 5 -2 5q-1 0 -2 -1q-5 -1 -8 -1q-6 -1 -39 -5q-43 -6 -60.5 -7.5t-52.5 -1.5q-65 -1 -95 -11.5t-45 -33.5q-3 -7 -10 -16q-6 -6 -6 -8q0 -4 8 -10q6 -6 20 -6q13 0 38.5 4.5t72.5 14.5q16 3 22 4
q30 6 48 8.5t46 2.5z" />
    <glyph glyph-name="period" unicode="." horiz-adv-x="410" 
d="M229 96q0 22 -3 28.5t-17 8.5q-2 0 -7 1h-5q-10 0 -15.5 -3t-12.5 -10q-1 -1 -5 -4q-8 -6 -21 -11q-11 -5 -17.5 -10.5t-11.5 -19.5q-5 -11 -18 -38q-11 -24 -15 -34t-4 -17q0 -5 2 -9q3 -8 22 -8t42.5 8.5t32.5 20.5q2 3 13 17q22 28 31 44t9 36z" />
    <glyph glyph-name="slash" unicode="/" horiz-adv-x="548" 
d="M171 191q96 147 199 274t234 259q5 5 13 19t15 26q-3 20 -14 48q-7 18 -7 24q-3 6 -12 10.5t-18 4.5q-14 0 -21 -10q-7 -11 -14 -30t-18.5 -37.5t-43.5 -53.5q-71 -88 -162 -201q-77 -94 -105.5 -131t-38.5 -56q-19 -33 -74 -127q-28 -50 -49.5 -86t-46 -78t-43.5 -72.5
t-31 -47.5q5 -16 12 -20.5t27 -4.5q9 0 27.5 7t37 18.5t32.5 24t17 24.5q0 25 -5 32.5t-26 7.5q58 86 115 176z" />
    <glyph glyph-name="zero" unicode="0" horiz-adv-x="660" 
d="M735 578q-5 30 -40 64.5t-99 70.5q-16 9 -27.5 12.5t-24.5 3.5q-8 0 -28 -3q-18 -2 -35 -3q-95 -3 -148 -56q-26 -3 -42 -16.5t-32 -36.5q-2 -3 -8 -10q-11 -17 -21 -31q-11 -16 -14.5 -22t-3.5 -13t-11 -25t-31 -48q-20 -28 -29 -43q-46 -81 -71.5 -153.5t-25.5 -140.5
q0 -35 7 -68q8 -27 34 -49.5t46 -23.5q46 1 93 11.5t125 39.5q18 7 28.5 14t25.5 18q24 19 47 30q36 15 49.5 25t26.5 27q6 10 22.5 30t36.5 43t42 47.5t44 49.5q4 4 31 34q38 75 38 159q0 31 -5 63zM143 87q-16 28 -16 58q0 15 4 42q5 31 5 49q0 3 0.5 5t4.5 6
q8 12 16.5 25.5t25.5 43t46 83t69 132.5q8 15 12.5 20t9.5 5q2 0 7 -1q6 -2 8 -2q8 -2 12 -8.5t7 -17.5q4 -11 8 -16.5t13 -5.5q13 0 16.5 7.5t5.5 25.5q4 26 12 37q12 15 12 34q0 15 -7 27t-16 15q70 0 137 -14.5t90 -38.5q12 -11 15.5 -16t3.5 -8q0 -2 -1 -6
q-2 -10 -2 -21q0 -26 13 -72v-8l1 -8q0 -52 -26 -104t-77 -112q-29 -32 -68.5 -61t-78.5 -52t-70.5 -37.5t-43.5 -16.5q-15 -2 -35 -3t-38 -1q-29 0 -49 3.5t-26 11.5z" />
    <glyph glyph-name="one" unicode="1" horiz-adv-x="371" 
d="M261 769q-4 -5 -7.5 -19t-3.5 -25q0 -15 8 -15q3 0 7 2q25 20 37.5 26.5t25.5 10.5h1q12 2 18 2q12 0 12 -8q0 -6 -13 -31q-14 -29 -22 -50q-34 -73 -57.5 -117.5t-56.5 -102.5q-30 -51 -47.5 -83t-42.5 -79q-4 -9 -11 -26.5t-17.5 -49t-17.5 -52t-15 -46.5
q-14 -43 -17 -50q-14 -35 -14 -44q0 -5 3 -7q5 -5 21 -5h9q6 1 9 1q28 2 45.5 18.5t20.5 51.5q9 86 49 170t116 210q56 92 89.5 154.5t54.5 125.5q14 41 21 81q0 5 -5 8t-23 11q-2 1 -5 2q-14 9 -21 9q-4 0 -18 -3q-17 0 -27 -2t-25 -7q-34 -13 -53 -31q-10 -9 -15 -14
t-9 -11z" />
    <glyph glyph-name="two" unicode="2" horiz-adv-x="725" 
d="M567 599q-12 -35 -37 -68.5t-57.5 -63t-65 -54t-82.5 -59.5l-50 -35q-40 -28 -65.5 -47.5t-50 -42t-52 -52t-73.5 -82.5q-8 -9 -8 -18t6.5 -17.5t19.5 -19.5q11 -10 15 -15q5 -7 22.5 -9.5t57.5 -2.5q38 0 167 4t234 6q18 0 25.5 -2.5t13.5 -8.5q4 -4 9.5 -6t16.5 -2
q26 1 41.5 15t32.5 42q8 17 8 29q0 36 -93 36q-53 0 -95 -2.5t-94 -6.5q-71 -7 -103 -7q-20 0 -41 2l-49 3q-53 3 -70.5 5t-17.5 4t9 8l6 3q29 28 50.5 47.5t39.5 33.5t33 24.5t34 21.5q69 44 110.5 76t79.5 71q10 10 28 23q24 18 39 34q46 56 66 80.5t30.5 41.5t14 29.5
t4.5 31.5q0 16 -22.5 43.5t-54.5 48.5q-12 11 -30.5 22.5t-28.5 12.5h-10q-5 1 -10 1q-51 0 -99 -16.5t-119 -51.5q-21 -12 -52 -38q-15 -12 -23 -18q-21 -18 -28.5 -32.5t-7.5 -30.5q0 -2 1 -8v-8q1 -31 11.5 -45t35.5 -14q2 0 6 1h7h2q21 4 29 11t8 31q0 11 -2 27
q-3 16 -3 25q0 18 14 25q42 25 78 35.5t71 10.5q4 0 14 -1q8 -1 14 -1q3 0 9 -1q18 0 29 -9q19 -15 36 -34t17 -32l-1 -2v-2z" />
    <glyph glyph-name="three" unicode="3" horiz-adv-x="696" 
d="M642 651v2l1 3q0 14 -13 30.5t-39 23.5q-19 6 -62 21q-42 16 -70.5 23.5t-58.5 7.5q-34 -2 -50 -13.5t-28 -28.5l-1 -2q-1 -3 -5 -8q-6 -10 -6 -15q0 -11 14 -23q15 -28 35 -28q9 0 11 9q0 8 11.5 11.5t34.5 6.5h1q14 6 28 6q18 0 46 -14q45 -22 45 -42
q0 -11 -11.5 -21.5t-33.5 -23.5q-21 -9 -74 -39q-36 -21 -60.5 -34t-48.5 -22q-23 0 -36 -16t-29 -69v-1v-1q0 -4 7.5 -6.5t25.5 -4.5q27 -4 38 -8q24 -7 70 -17q63 -13 105.5 -28t82.5 -48q7 -8 7 -19q0 -23 -33.5 -57.5t-109.5 -79.5q-35 -21 -52 -30t-35 -16t-40.5 -12
t-58.5 -10q-20 -5 -38 -5q-32 0 -56.5 14.5t-56.5 44.5q-16 14 -22 26t-9 26t-10 14q-4 0 -12 -3h-3h-2h-6h-5q-5 0 -9.5 -4t-10.5 -17q-14 -24 -34 -52q-17 -24 -17 -31q0 -6 7.5 -11.5t30.5 -17.5q3 -1 10 -5q16 -8 42 -25q41 -26 56 -26l36 3q62 4 104 11t85 24
q63 17 128.5 58t140.5 104q4 4 16 8q19 7 26 17q20 26 32 46t12 30q0 7 -10 21q-10 13 -12 22q-2 8 -11 18t-21 19t-24.5 16t-20.5 9q-19 6 -74 26q-50 17 -80 27t-45 13q6 3 45 23q89 44 137 79t73 91z" />
    <glyph glyph-name="four" unicode="4" horiz-adv-x="765" 
d="M427 15q3 62 29 126.5t73 141.5q2 2 8 2q11 0 50 -8q45 -9 64 -10q31 0 54 17.5t23 41.5q0 7 -2 14q-4 5 -19 9.5t-36 7t-43 4t-34 1.5h-6q-8 1 -22 1q-9 0 -9 6t7 23q42 73 67 144t56 181q10 36 16 56q0 6 -16 19q-15 12 -19 18q-4 12 -29 12q-19 0 -41 -11.5t-39 -36.5
q-10 -14 -38.5 -42.5t-63 -60.5t-64.5 -57.5t-44 -34.5q-22 -15 -52 -49q-20 -22 -37 -37.5t-44 -31.5q-19 -12 -30 -22t-25 -26q-15 -15 -28.5 -28t-35.5 -31q-33 -28 -49 -44.5t-38 -44.5q-7 -8 -7 -14q0 -5 6 -11q5 -5 5 -9t-3 -9t-3 -8q0 -14 31 -14q24 0 61 9
q44 10 77 17t60 12t56 10t72 11l30 5l3 1q20 3 24 3q5 0 5 -3t-12 -21q-3 -5 -7 -11q-4 -11 -16 -38q-26 -60 -39 -100.5t-13 -80.5q0 -1 1 -10v-10q1 -9 9.5 -13t19.5 -4q12 8 33 18q24 11 24 20zM475 368q-4 -6 -45 -13q-62 -10 -110 -23q-28 -6 -67 -18q-21 -6 -27 -7
q-2 0 -38 -3q-47 -4 -58 -4q-15 0 -15 4q0 3 8 9q31 27 55 48.5t50 45.5q40 37 65 59q7 7 22 17q12 9 25.5 18.5t35.5 28t59 51.5t89 82q39 40 52 40q5 0 5 -8q0 -78 -27.5 -152t-78.5 -175z" />
    <glyph glyph-name="five" unicode="5" horiz-adv-x="746" 
d="M66 104q5 8 9.5 11.5t11.5 5.5q8 3 14.5 8t14.5 19l1 1q10 15 14.5 23.5t4.5 13.5q0 6 -6 6q-5 0 -13 -3q-43 -12 -61 -24t-44 -40q-3 -4 -5 -6q-46 -49 -46 -70q0 -13 16 -19q60 -19 98 -26.5t81 -7.5q32 0 73.5 3.5t128.5 12.5l13 1q17 1 22.5 2.5t9.5 5.5q5 5 14 10
t30 11q66 33 129.5 89t109.5 129q9 17 9 44q0 32 -12 70q-15 38 -95 64.5t-249 58.5q-19 5 -19 18q0 11 11.5 25t33.5 38q22 23 30 33q21 -26 34 -26q7 0 24 10l4 3q9 6 16.5 8.5t20.5 5.5q18 5 40.5 12t57.5 21q32 7 53 14t53 19q38 14 70.5 25t87.5 25q10 5 17 20
q4 7 6 10q5 8 5 15q0 11 -13 11q-1 0 -5 -1t-6 -1q-61 -18 -102 -28.5t-93 -22.5q-43 -11 -78 -19.5t-83 -21.5l3 8q5 14 5 18t-10 7t-12 4q-25 9 -36 9q-10 0 -23 -11q-9 -9 -17 -14q-61 -47 -111 -100t-72 -108q-3 -8 -3 -16q0 -32 55.5 -56.5t156.5 -38.5
q72 -12 109.5 -39t37.5 -74q0 -33 -19 -76q-4 -11 -36 -34q-20 -15 -31 -25q-115 -83 -244 -83q-93 0 -191 43z" />
    <glyph glyph-name="six" unicode="6" horiz-adv-x="675" 
d="M425 310q55 0 81 -26t26 -62q0 -29 -14 -50q-25 -27 -63 -50t-93 -40q-5 -2 -14 -5q-13 -5 -27 -7.5t-48 -2.5q-69 1 -105 14.5t-45 37.5q-2 10 -2 17q0 11 5.5 20t20.5 21q17 13 44 43q19 22 25 24q62 30 110.5 46.5t98.5 19.5zM559 890q-52 -38 -98.5 -89t-109.5 -129
q-43 -54 -65 -79q-6 -20 -13.5 -37.5t-20 -39.5t-35.5 -56t-61 -87q-17 -27 -47 -61q-20 -24 -31.5 -41.5t-19.5 -44.5q-16 -42 -16 -66q-29 -30 -47.5 -59t-19.5 -51q0 -17 9 -17q3 0 12 4l3 1q28 5 42 11.5t23 20.5q3 -7 8 -17q16 -36 34.5 -49.5t72.5 -13.5h8h8
q14 0 36 -2q17 -1 24 -1q12 0 18 3q5 5 19.5 10t47.5 14q49 14 81.5 26t49.5 27q5 6 18 11q22 9 36 26q13 16 34 28q13 7 22 15.5t20 27.5q10 20 15 50t5 57q0 23 -3 30q-2 6 -12.5 17.5t-25 24t-27.5 21t-19 8.5q-34 4 -61 4q-38 0 -72.5 -7t-65.5 -24q-1 -1 -21 -10
q-44 -20 -79.5 -38.5t-78.5 -46.5q30 40 61 88.5t52 84.5q9 16 33 50t62.5 83.5t88.5 108.5t106 118q-4 -20 -4 -28q0 -13 14 -16q9 0 21.5 12t26 32.5t24.5 43t17 43.5q4 7 4 11q0 6 -19 7q-22 2 -33 6q-10 4 -17 4q-10 0 -28 -14z" />
    <glyph glyph-name="seven" unicode="7" horiz-adv-x="534" 
d="M520 690q-29 -36 -53 -63t-47.5 -50t-45 -42t-51.5 -43q-32 -7 -45 -7q-12 0 -37 10q-2 0 -4 1q-7 3 -13 3q-7 0 -16 -6t-15 -6q-11 0 -20 -12t-9 -27q0 -21 19 -31q16 0 29 -1.5t42 -6.5q-7 -4 -18.5 -16.5t-25 -28.5t-23.5 -30t-13 -19q-11 -26 -28 -50.5t-45 -61.5
q-44 -57 -65.5 -95t-21.5 -78q0 -27 12 -53q32 1 46.5 7.5t20.5 19.5q12 15 12 23q0 5 -4 6.5t-11 3.5q-9 2 -9 4q0 5 11 24t35 57q34 54 51 83.5t22 46.5q5 18 18.5 35t48.5 53q45 46 75 79q57 0 81 4.5t41 11.5q14 7 25 8q34 13 47.5 21t13.5 14q0 3 -6 7q-3 2 -7 2
q-5 0 -15 -3q-11 -4 -17 -4q-10 0 -17 7q-6 6 -31 8q-24 1 -38 6q29 26 53.5 49t39 37.5t23.5 24t28 29.5q0 1 14 16q35 48 35 86q0 48 -54 48q-20 0 -46.5 2t-79.5 8q-62 6 -103.5 9t-77.5 4q-5 2 -8 2q-9 0 -13 -22q-12 -21 -29 -41q-7 -9 -7 -11q0 -4 17 -13q13 -5 35 -5
h20q24 1 35 1q6 0 19 -1h24q82 -3 176 -34z" />
    <glyph glyph-name="eight" unicode="8" horiz-adv-x="732" 
d="M564 97q-58 -23 -118.5 -29t-152.5 -6q-11 0 -21 2.5t-24 8.5q-5 3 -17 7q-33 13 -63 31t-58 53q-10 18 -10 26q0 5 3 10q2 3 3 6q7 21 36 45t67 46.5t73 39.5t59 27q20 -19 33.5 -31.5t25 -22t23 -17.5t41.5 -28q1 -2 5 -4q21 -13 27 -17q70 -44 94 -66t24 -51
q-1 -13 -6.5 -17t-18.5 -6q-15 -3 -25 -7zM503 533q-15 -9 -36 -27q-16 -14 -28 -22t-31 -13q-7 -2 -16 -6q-13 -6 -28 -10q-34 50 -34 97t34 98q24 39 71 57.5t103 20.5h16q38 -1 61 -9t32 -36v-2l1 -2q0 -11 -11.5 -29t-31.5 -39.5t-46.5 -42t-55.5 -35.5zM141 20
q16 -8 29 -12.5t35 -7.5t59.5 -4.5t100.5 -1.5q41 0 127 18q41 8 65 12q17 1 24 4.5t12 9.5q7 8 20 11q51 10 64.5 38t13.5 79q-1 19 -17.5 40.5t-41.5 41.5t-50.5 34t-42.5 19q-13 4 -18 14q-4 7 -9 10q-31 20 -97 75l-7 6q33 14 82 48q11 7 19 13q15 10 30 17
q8 3 13.5 6.5t12.5 8.5q58 44 101.5 94.5t65.5 90.5q25 47 25 71q0 18 -16 34q-12 11 -44 17t-72 6q-51 0 -93 -9q-189 -47 -263 -165q-22 -39 -22 -83q0 -65 49 -148q-19 -8 -37.5 -18t-49.5 -28q-32 -19 -41 -22q-12 -5 -30 -21q-12 -12 -21.5 -18t-21.5 -7
q-14 -8 -30 -21.5t-28 -29.5q-31 -38 -31 -73q0 -10 3 -19q14 -37 51.5 -71.5t80.5 -58.5z" />
    <glyph glyph-name="nine" unicode="9" horiz-adv-x="488" 
d="M26 -120q2 -23 19 -23q10 0 23 8q7 4 16 8q12 5 16.5 13.5t8.5 38.5q2 26 18.5 51.5t65.5 88.5q27 33 51 64q15 15 30 37t36 57q20 33 28 44q11 17 24 37q45 70 67.5 117.5t22.5 100.5q22 10 37.5 21t26.5 27q46 66 70.5 108.5t25.5 57.5q0 7 1 22q1 9 1 14
q0 17 -6.5 26.5t-26.5 18.5q-9 11 -18 11t-22 -8q-16 -3 -39 -4q-29 -1 -41 -7q-9 -5 -42 -9q-25 -4 -31 -6q-6 0 -16 1h-11q-15 0 -25 -3t-20 -10q-3 -3 -9 -6q-8 -4 -15.5 -10t-22.5 -20q-61 -53 -89.5 -79.5t-45 -45.5t-25.5 -37t-21 -49q-15 -35 -21.5 -57t-6.5 -37
q0 -12 3.5 -21t10.5 -23q3 -5 5 -9q2 -3 2 -5q5 -9 14 -9q6 0 33 3q12 2 15 2q24 3 44 9t51 19q25 10 43 16q14 4 32 11q14 5 27 10q-8 -17 -34.5 -64.5t-57.5 -102t-58.5 -99t-40.5 -59.5q-60 -67 -91 -124t-32 -115zM429 559q-13 -5 -20 -10t-13 -12q-7 -7 -11 -10
q-8 -7 -15 -10.5t-21 -9.5q-20 -9 -37.5 -17t-47.5 -24q-38 -19 -62 -19q-19 0 -42 11q-19 9 -19 29q0 22 25 63t81 108q9 11 17 17.5t24 16.5q17 11 29 19q8 7 16 7q16 0 16 -25q0 -3 7 -3q15 0 42 11.5t31 22.5l1 3v2q0 6 -7 16q-4 5 -5 7q9 4 19 4q12 0 28 -6l3 -1
q23 -9 30.5 -16t7.5 -30q0 -30 -6.5 -50t-21.5 -42q-4 -6 -10 -18q-7 -15 -14.5 -22t-24.5 -12z" />
    <glyph glyph-name="colon" unicode=":" horiz-adv-x="288" 
d="M163 186q-42 -6 -62 -28.5t-25 -69.5q-1 -6 -1 -20q0 -21 -3 -44q5 1 19 2q12 1 18 3t13 10q3 4 10 10q11 9 16.5 18t5.5 27q0 30 5 49t12 33q3 7 3 9t-4 2l-3 -1h-4zM179 299q4 -2 10 -2q13 0 29.5 7t21.5 12q12 8 12 16q0 1 -1 5t-1 7v40q1 15 1 19q0 21 -3.5 25.5
t-17.5 5.5h-2q-31 0 -46 -9t-17 -26v-11q-1 -8 -1 -12q0 -28 4.5 -51t10.5 -26z" />
    <glyph glyph-name="semicolon" unicode=";" horiz-adv-x="314" 
d="M137 10q42 82 57.5 115.5t15.5 46.5q-1 8 -15 8l-6 -1h-9q-35 -2 -61 -68q-19 -46 -35 -80t-33.5 -66.5t-40.5 -66.5t-53 -71q-26 -25 -37 -58l-3 -6q-3 -5 -3 -6q0 -2 3 -2q7 0 37 10q16 4 23 12t7 25q9 9 26 22q23 17 32 33q27 25 45 55.5t37 71.5zM245 437
q-11 0 -16.5 -2t-11.5 -8l-4 -3q-2 -1 -5 -3q-10 -5 -16.5 -11t-11.5 -21q-3 -8 -8 -20q-20 -49 -20 -59q0 -5 2 -8q3 -11 10 -11q3 0 13 5l5 2q18 3 27.5 10.5t27.5 36.5l6 10q9 14 13 25.5t4 34.5q0 3 1 6l1 4q0 11 -17 12z" />
    <glyph glyph-name="less" unicode="&#x3c;" horiz-adv-x="572" 
d="M479 186q8 8 21 9q12 0 17 11q5 19 5 24q0 7 -10 7q-11 1 -22.5 4.5t-26.5 14.5q-18 12 -37 17t-55 9q-33 4 -60 9t-59 14q-23 10 -35 10q-3 0 -9 -2q-7 -1 -11 -1q32 15 61 28t67 29q80 19 130 43q36 15 56.5 24.5t32.5 17.5t19 15t18 22q3 3 4 5q8 11 8 18q0 12 -21 12
q-9 0 -19 -2t-16 -4q-53 -19 -100 -40t-104 -50q-52 -25 -78 -36.5t-44 -12.5q-14 -1 -50 -21q-42 -22 -64 -27q-27 -5 -53 -28t-35 -39q-9 -17 -9 -23t12 -11q6 -2 11 -4q40 -4 119 -7q88 -3 147.5 -10.5t117.5 -28.5q8 -3 31 -3q15 0 27 1.5t14 5.5z" />
    <glyph glyph-name="equal" unicode="=" horiz-adv-x="642" 
d="M199 378v-1q-7 -16 -7 -21q0 -9 17 -9h4h6q22 1 76.5 2t121.5 1q39 0 80 -0.5t73 -1.5q26 0 48.5 15t22.5 31q0 11 -16 17q-6 1 -10 4q-6 3 -14 3q-28 -2 -66 -2.5t-79 -0.5q-51 0 -101.5 1t-84.5 3q-24 -1 -45 -14t-26 -27zM114 250q58 3 126 5t126 2q53 0 96 -2
q39 0 50.5 5.5t17.5 18.5q1 2 3 5q6 14 6 21q0 13 -15 13q-2 0 -6 -1q-5 -1 -8 -1q-20 -4 -60 -4q-29 0 -67.5 2t-77.5 5t-71.5 6.5t-51.5 5.5q-2 0 -9 1h-8q-20 0 -33 -9t-37 -36q-15 -18 -15 -25q0 -10 34 -12z" />
    <glyph glyph-name="greater" unicode="&#x3e;" horiz-adv-x="452" 
d="M140 173q-14 -9 -46 -23q-33 -15 -52.5 -28t-35.5 -39q-11 -21 -11 -26q0 -4 4 -4h5q3 -1 4 -1q16 0 27 12q15 15 26 24t25 17.5t34.5 17t53.5 19.5q9 3 20 7q35 12 50.5 19t21.5 16q13 12 25 19t34 15q43 17 66.5 35.5t33.5 40.5q3 7 3 13q0 17 -16 29.5t-42 24.5
l-21 10q-62 28 -86 37.5t-38 9.5q-15 0 -26 -17v-1q-4 -10 -4 -14q0 -13 23 -31.5t93 -60.5q22 -14 22 -25q0 -6 -10 -6q-3 0 -10 -6q-10 -8 -20.5 -13.5t-26.5 -6.5q-11 -2 -19 -7.5t-17 -14.5q-18 -18 -30 -19q-12 0 -23 -4.5t-33 -16.5z" />
    <glyph glyph-name="question" unicode="?" horiz-adv-x="519" 
d="M90 299q0 -1 -1 -4v-7q0 -21 13 -51t28 -41q19 -15 32.5 -21t36.5 -6q30 0 88 13q10 3 24 3q15 1 24 5q3 1 5 1q9 2 9 8q0 5 -3 13q-6 17 -9 17h-3q-3 -2 -5 -2q-56 0 -79 5t-37 14l-3 2q-18 14 -28.5 26.5t-10.5 32.5q0 19 12.5 44t41.5 58q28 28 64.5 62.5t72 66
t63.5 55t37 28.5q24 11 42.5 33.5t44.5 63.5q5 8 5 15q0 6 -6 19q-5 11 -6 17q-3 22 -34 36t-81 14q-16 0 -33 -2q-32 -3 -53 -7.5t-38.5 -12.5t-37.5 -22.5t-56 -42.5q14 -3 31 -17q11 -9 15 -9q5 0 8 4q10 13 24 13q9 0 19 -6q3 -2 8 -6q5 -5 7 -5q5 0 15 23q2 3 2 5
q0 6 -7 9q40 4 67 4q33 0 46 -6t15 -18q-1 -16 -4 -25.5t-13.5 -22t-31 -30.5t-65.5 -53q-33 -23 -49 -37.5t-37 -37.5q-16 -17 -28 -29t-31 -30q-42 -39 -68 -77t-42 -82zM73 -8q6 -9 12 -11t23 -2q37 0 45.5 1.5t16.5 7.5q6 5 12 9q15 16 15 22q0 4 -7 6q-9 2 -22 9
q-11 6 -17 8q-9 4 -17 11q-7 5 -12 5q-4 0 -14 -3q-12 -5 -25.5 -20.5t-13.5 -29.5q0 -8 4 -13z" />
    <glyph glyph-name="at" unicode="@" horiz-adv-x="612" 
d="M218 -67q44 5 55.5 8.5t21.5 13.5q9 9 16.5 11.5t17.5 2.5t17.5 3.5t18.5 16.5q-48 -10 -76 -14.5t-49 -4.5q-16 0 -57 5q-8 1 -12 1q-50 1 -74.5 10t-43.5 29q-17 27 -17 54q0 24 12.5 56.5t41.5 78.5q21 39 35.5 63.5t29 45t32.5 42t48 53.5q53 43 91 60t82 17
q39 0 120 -16q12 -1 15.5 -4.5t4.5 -9.5q2 -7 7 -9q14 -13 20 -38t6 -55q0 -36 -7 -67t-37.5 -70.5t-65.5 -65.5q-19 -12 -28 -12q-14 0 -14 25q0 31 10.5 60t34.5 70q8 10 10.5 17.5t3.5 16.5q0 12 10 14q-5 7 -11 19q-7 16 -16 21q-3 2 -5 4q-13 8 -26 8q-8 0 -24 -6
t-35 -15.5t-35.5 -20t-24.5 -19.5q-66 -57 -111 -117t-52 -114q0 -13 15 -20t36 -7q7 0 23.5 9t35.5 23.5t33.5 30.5t19.5 30v0q5 11 5 13l-1 1q-2 0 -15 -11q-12 -10 -23 -19q-10 -8 -23 -13t-23 -5q-12 0 -12 8v2q1 2 1 3q20 50 65 100t92 75q1 0 3 1q3 1 5 1q9 0 17 -4.5
t8 -10.5q0 -9 -16 -20q-65 -90 -65 -174q0 -19 3 -37q5 -21 31 -21q23 0 56 15.5t61 35.5q49 34 85 71.5t55 82.5q22 61 22 110q0 68 -40 127q-8 12 -26 24t-34 17q-25 5 -52 5q-55 0 -131 -23q-67 -25 -97 -42t-54 -44q-6 -6 -9.5 -8t-7.5 -3l-9 -4.5t-14 -10.5
q-8 -8 -28.5 -34t-45.5 -62t-47.5 -72t-36.5 -65q-43 -87 -43 -143q0 -35 17 -58t49 -35l4 -2q21 -8 34.5 -12t35.5 -4q32 0 101 11z" />
    <glyph glyph-name="A" unicode="A" horiz-adv-x="797" 
d="M683 723q4 -10 11 -29q11 -27 15.5 -41.5t4.5 -28.5q0 -19 -9 -41q-5 -12 -8 -52q-2 -31 -5 -45l-33 -220q-3 -16 -5 -29q-10 -56 -14 -62q-3 -4 -8 -4q-4 0 -9.5 3t-6.5 5q-8 6 -16.5 17.5t-12.5 23.5q-6 16 -27.5 37.5t-53.5 49.5q-18 15 -20 17q-8 8 -30 26.5
t-43 32.5q47 59 72.5 90t27.5 32q8 5 23 26q8 12 12 16q27 23 59.5 67t75.5 109zM759 437q1 8 5 48q6 58 10.5 89t11.5 40q11 11 14 19.5t3 22.5q0 7 1 23v27q0 27 -1.5 49t-4.5 33v2q-2 9 -10 14q-7 6 -29 16.5t-33 11.5q-7 0 -23 -12.5t-35 -31t-35.5 -36.5t-23.5 -29
l-4 -5q-14 -18 -20 -27.5t-19 -31.5q-9 -15 -30 -43t-57 -70q-3 -3 -13 -17q-21 -29 -43 -56t-48 -53q-8 6 -25 20q-15 13 -23.5 19t-13.5 7q-26 7 -43 7q-14 0 -16 -4q-6 -8 -22.5 -18.5t-26.5 -12.5q-26 -8 -26 -22q0 -5 4 -10q0 -16 4.5 -26t14.5 -10t24 2q11 2 15 2
q12 0 25 -8t34 -31q-10 -13 -25.5 -33t-28.5 -35t-26.5 -30t-21.5 -23l-167 -165q-6 -6 -12 -20q-4 -11 -8 -16t-13 -5q-13 0 -22.5 -9t-27.5 -34q-2 -3 -3 -4q-7 -10 -18 -35t-11 -28l-2 -3q-1 -4 -1 -6t4 -2t13 2h3h1q5 0 8 -3q2 -4 6 -4h2q2 1 3 1q8 6 33 18q32 15 36 22
q19 32 45 66.5t56 69.5q7 9 18.5 22.5t25.5 28.5t26.5 28t21.5 21q5 6 31 33q37 37 60 61.5t42 48.5q19 -9 44 -30t57 -52q16 -15 21 -19q9 -8 22.5 -27.5t33.5 -52.5q15 -23 21.5 -32.5t8.5 -10.5q6 -2 12.5 -10t19.5 -27q11 -18 18.5 -26.5t12.5 -8.5q4 0 17 7t27 16.5
t26.5 19.5t16.5 17q10 15 14 49t7 87q3 37 4 44q4 15 6.5 37.5t5.5 62.5q3 42 6 68q1 5 5 11q5 7 5 12z" />
    <glyph glyph-name="B" unicode="B" horiz-adv-x="861" 
d="M237 105q-5 -6 -5 -10q0 -10 22 -10q17 0 37 6q30 37 55.5 70.5t63.5 83.5q27 38 40 54.5t16 16.5q60 -4 101 -12.5t69.5 -24t49 -39t35.5 -59.5q3 -7 3 -16q0 -27 -23.5 -51t-65.5 -29q-31 -18 -79 -24.5t-119 -6.5q-53 0 -107 6.5t-101 16.5t-81.5 22.5t-50.5 23.5
q-7 6 -11 19.5t-7 32.5q-3 17 -5 19h-2q-2 1 -4 1t-11 -1h-8q-6 0 -14.5 -8.5t-16 -21.5t-13 -27t-5.5 -24q0 -28 21 -47.5t82 -41.5h3l4 -1h8q5 1 7 1q8 0 12 -3q2 0 6 -6q3 -6 6 -7q45 -11 96.5 -14t142.5 -4h14q23 1 53.5 4t59.5 7t54.5 8t38.5 7l14 2q27 3 31 5l4 2
q36 16 58.5 28.5t48.5 32.5q3 3 11.5 14.5t17.5 25.5t15.5 25.5t7.5 16.5v5q1 4 1 6q0 27 -10 59.5t-25 44.5q-14 12 -38 27q-18 12 -26 19q-35 31 -79.5 44.5t-122.5 26.5q57 4 100.5 13t75.5 22t57 28t56 38q30 14 47 33.5t37 52.5t34 48q-5 51 -21 79t-50 43.5t-85.5 24
t-160.5 19.5q-11 0 -22 4q-4 1 -6 1q-74 -1 -121.5 -9t-77.5 -23.5t-49.5 -38.5t-44.5 -63q-2 -3 -2 -4q-6 -8 -6 -10q0 -4 8 -5h9q10 -1 17 -1q12 0 21 2t11 6l2 4q9 19 14.5 27t13 12t19 6.5t44.5 7.5q54 6 101 6q112 0 221 -33q27 -7 43.5 -25.5t16.5 -42.5
q0 -38 -41 -76q-5 -5 -23.5 -15.5t-42 -22.5t-53.5 -26t-52 -24q-6 -2 -22 -5q-29 -6 -52 -12q28 69 28 100q0 30 -26 30q-7 0 -16 -2q-5 -1 -14 -9t-18.5 -18.5t-16.5 -21.5t-8 -19q-2 -8 -4 -27q-3 -21 -7 -35t-15 -25q-38 10 -61 10q-20 0 -28 -7l-51 -38q-6 -4 -6 -14
q0 -8 4.5 -16t10.5 -9q24 -4 45 -7t39 -3q3 -2 3 -4q0 -4 -8 -14q-46 -71 -83.5 -122.5t-62.5 -84.5z" />
    <glyph glyph-name="C" unicode="C" horiz-adv-x="680" 
d="M539 105q14 6 39 25q16 12 20 12q20 2 31.5 20t11.5 28q0 6 -6.5 10t-14.5 4q-5 0 -9 -2l-244 -109q-12 -5 -35 -7q-12 -1 -14 -2q-11 -8 -38 -13t-45 -5q-12 4 -36 4h-20q-8 -1 -14 -1q-2 0 -7 1h-4q-31 9 -40 27q-2 4 -2 11q0 16 9.5 43.5t16.5 42.5q18 33 74 101
q39 47 55 70q6 9 17 22t21.5 25t20.5 22.5t16 15.5q32 30 86 83q66 65 110 104t91 70q5 3 13 3q12 0 26 -6.5t25 -16.5q8 -8 8 -27q0 -24 -9 -47q-2 -8 -2 -18q0 -12 3 -24.5t6 -17.5q6 -9 24 -9q16 0 24 8q24 26 40.5 50t16.5 35q0 3 -3 5q3 9 5.5 35t2.5 49v12q-1 6 -1 10
q-4 23 -24 41.5t-49 19.5q-7 0 -18 -3t-27 -9q-14 -5 -17 -5h-3l-4 1q-12 0 -28.5 -6t-32 -14t-28 -16t-17.5 -11q-78 -57 -152.5 -126t-141 -143t-125 -149t-110.5 -150q-5 -7 -7 -27q-1 -13 -3 -15q-7 -6 -14 -34t-7 -46q0 -24 15.5 -46t37.5 -27q2 0 10 -2q19 -5 30 -5
t23 4q13 4 26 6t36 4q7 0 27.5 2.5t46 7.5t48.5 10.5t36 10.5z" />
    <glyph glyph-name="D" unicode="D" horiz-adv-x="972" 
d="M487 434q-24 -55 -64.5 -111t-105.5 -135q-44 -53 -65 -81q-12 -15 -25 -15q-2 0 -7 1q-3 1 -4 1q-31 6 -45.5 14t-33.5 27q-19 18 -31 28q-7 5 -18 5q-7 0 -21 -2q-22 -3 -36 -3q-30 -18 -30 -37q0 -23 45 -57q33 -21 52.5 -30t36.5 -14q10 -3 13 -5q4 -2 14 -3
q15 -1 15 -7q0 -4 -4 -11q0 -15 16 -25.5t33 -10.5q11 0 27 13.5t35 34.5q4 6 39 8.5t88 2.5h50q24 -1 32 -1t18 1h4q10 5 25 7.5t43 5.5l20 2q8 0 19 4.5t19 12.5q6 6 16.5 8t27.5 4q20 3 25 5q7 2 19.5 8.5t28 15.5t28 17.5t17.5 13.5q31 26 62 38q12 5 36.5 27t42.5 44
q15 17 19 50t4 84q0 20 -7.5 57t-14.5 51q-7 12 -22 33t-34.5 45.5t-37.5 45.5t-30 32q-6 6 -8 15q-2 7 -6 10q-7 5 -26 20q-73 55 -147 96.5t-176 60.5q-12 2 -26 2q-21 0 -57 -6q-23 -3 -31 -3h-4q-3 1 -4 1q-10 0 -18 -9q-4 -4 -7 -5q-37 -15 -69 -34.5t-43 -39.5
q-3 -4 -4.5 -24.5t-1.5 -49.5q0 -23 1 -44t2 -27q1 -4 2 -12q3 -23 12.5 -42t38.5 -44q6 -5 12 -17q6 -10 11 -14.5t15 -4.5q4 4 11.5 12.5t10.5 14.5q3 7 3 21q0 17 -4 36.5t-9 27.5q-2 4 -2 26q-1 21 -3 23q-9 6 -13 25.5t-4 39.5q0 4 1 12v6q2 11 12.5 18.5t24.5 8.5
q6 0 9 4q5 5 15 6q42 0 75 -3.5t80 -10.5q31 -4 46 -6q45 -9 96.5 -38t88.5 -67q9 -10 27.5 -34t39.5 -54.5t35.5 -55t17.5 -35.5q2 -6 2 -7q6 -19 6 -32q0 -3 5 -10q9 -13 11 -24t2 -29q0 -23 -3.5 -47.5t-11.5 -41.5q-2 -5 -12 -17t-23 -25t-24 -23t-16 -12
q-18 -13 -71 -27q-16 -5 -27 -8q-8 -3 -25 -12q-27 -15 -37 -15q-16 0 -37 -3t-38 -8q-37 -12 -75.5 -16.5t-76.5 -4.5q-34 2 -47 5t-13 9t15 23l15 18l145 192q2 3 7 11q3 6 5 8q42 66 103 152q31 42 33 49q0 13 -7.5 18.5t-16.5 5.5q-1 0 -4 -1h-2q-27 -4 -50 -16.5
t-40 -27t-27.5 -27.5t-13.5 -20q-1 -4 -1 -10q0 -8 -1.5 -15t-6.5 -17z" />
    <glyph glyph-name="E" unicode="E" horiz-adv-x="815" 
d="M517 58q6 1 18 7q18 8 29 10q23 5 57 22q63 35 97 66q42 33 42 51q0 10 -4 18q-25 -6 -43 -13q-25 -12 -54.5 -26t-64.5 -29.5t-57 -25t-27 -11.5q-54 -15 -113.5 -25.5t-98.5 -10.5q-5 0 -13 1h-10q-17 3 -44.5 4.5t-50.5 1.5q-9 0 -20 -1h-10q-23 0 -33.5 8t-12.5 22v8
q-1 8 -1 14q0 15 2 30t6 24q16 39 36 74t60 78q3 4 19 7.5t40.5 7t45 5t57.5 5.5q47 4 59 5q40 6 95 9.5t99 3.5q2 0 16 -1h11q16 -1 42 -5q18 -3 22 -3q11 0 29 4t37 10t33.5 12.5t19.5 12.5q4 6 4 18q0 14 -9 14l-2 -1q-3 -1 -4 -1q-92 0 -171 2q-43 1 -102.5 3t-136.5 5
q-24 1 -43.5 1.5t-58.5 0.5q-7 6 -7 15q0 13 14 29q27 42 44 67t27.5 38t17.5 18.5t16 8.5q13 11 60.5 21t116.5 10q30 0 62 -2q95 -6 158.5 -12.5t129.5 -22.5q14 8 37 13q11 3 14 5q12 8 22 24t10 20q0 10 -5 18t-18 11q-5 1 -23 2q-28 1 -50 5q-58 8 -143 8
q-41 0 -81.5 -1.5t-86.5 -3.5q-56 -3 -71 -3q-10 0 -32 3q-24 3 -49.5 5t-69.5 2q-76 -39 -103 -59.5t-27 -45.5q0 -32 8 -32q15 0 25 -7q-3 -8 -28 -39.5t-77 -93.5q-32 0 -48.5 -1t-26.5 -4t-16.5 -8t-17.5 -17l-2 -2q-14 -15 -22 -26t-8 -22q0 -2 1 -4v-3q5 -12 14.5 -16
t40.5 -8l11 -2q-26 -48 -69 -121q-49 -82 -50 -97q0 -22 2.5 -49t6.5 -48q3 -15 10 -22t17 -12q1 -1 3 -2q8 -4 31 -6t53 -2q1 0 20 1h17h12q78 2 121 11q9 2 29 3q40 2 66 10q12 4 20.5 7t23.5 6q40 16 78 21z" />
    <glyph glyph-name="F" unicode="F" horiz-adv-x="777" 
d="M297 365q4 0 16 1h13h23q17 -1 29 -1q2 0 26 2q273 16 319 18t64 2q5 -2 10 -2q12 0 25 9.5t25 24.5q7 7 7 26q-18 5 -28 7.5t-19 3.5h-5q-6 1 -8 1q-14 0 -40 -1.5t-44 -2.5q-13 -1 -36.5 -2.5t-34.5 -1.5q-34 3 -102 4q-56 1 -92.5 3.5t-73.5 11.5l2 11t3.5 18.5
t5.5 15t11.5 20t21.5 32.5l5 9q8 14 13 23t9 17q14 5 39 7q17 2 28 4q15 4 64 7.5t87 3.5q11 0 23 3q15 5 32 5l7 -1h9q84 -3 138.5 -10.5t102.5 -17.5q26 -5 33 -5q33 0 64 10t39 24q5 9 13 20q7 11 7 13q0 1 -5 2q-4 1 -6 2l-1 1q-13 15 -29.5 21.5t-63.5 9.5
q-56 2 -147 2q-76 0 -151.5 -1.5t-119.5 -3.5q-45 0 -85 5t-71 17q-4 1 -13 6q-18 7 -30 7q-13 -1 -19.5 -3t-13.5 -8h-1q0 1 -1 1q-7 0 -26.5 -16.5t-48.5 -43.5q-4 -3 -8 -7q-6 -8 -6 -25q0 -25 11 -25q2 0 10 1q11 1 16 1q12 0 12 -3q0 -6 -2 -14.5t-8 -29.5
q-8 -32 -16.5 -51.5t-26.5 -42.5q-2 0 -5 1h-5q-19 0 -38 -13t-37 -31q-6 -5 -7 -6q-8 -12 -8 -23q0 -15 12 -25t27 -10q-19 -39 -41 -73t-55 -79q-49 -67 -67 -100q-25 -54 -37 -77.5t-18 -33.5q6 -9 19 -9q8 0 29 5q11 2 21 4q8 11 26 37q31 43 41 61l10 20q9 16 17.5 32
t23.5 40t44 67.5t67 98.5z" />
    <glyph glyph-name="G" unicode="G" horiz-adv-x="660" 
d="M453 -249q11 40 47 111q29 58 41 91q4 8 7.5 13t13.5 13q10 11 16.5 26.5t12.5 36.5q2 7 3 9q5 14 6.5 24.5t1.5 30.5l-3 21q-4 30 -4 45q0 12 -4 17t-16 12q-7 4 -11 7q-25 20 -56 20q-35 0 -85 -25q-24 -12 -58 -28.5t-72.5 -35t-61.5 -29t-29 -12.5q-12 -6 -27.5 -8.5
t-30.5 -2.5q-21 0 -28 3q-4 4 -4 14q0 5 1 19l1 7q1 4 1 6q2 18 4.5 28t8.5 22t19.5 31.5t35.5 49.5q8 9 23 27q57 66 95.5 105t88.5 71q5 3 14.5 14.5t23.5 29.5q15 20 18 23q20 17 43 37q20 16 26.5 21t16.5 7q9 2 60 36q43 27 72 46q16 11 30 11h6q4 -1 7 -1
q21 -2 21 -21q0 -15 -19 -34q-8 -7 -29.5 -22t-32.5 -21q-11 -5 -17 -11.5t-21 -26.5q-12 -17 -21 -29q21 -22 31 -22q9 0 25 9q8 5 30 22q20 16 33 25q15 11 20 15q33 24 56.5 43.5t46.5 47.5q4 5 11 17.5t14.5 27.5t13 28.5t5.5 20.5q0 11 -12.5 23.5t-32.5 13.5
q-2 0 -14 1h-14q-24 0 -28 -6q-4 -4 -16 -4h-10q-7 1 -10 1q-8 0 -12 -2q-41 -23 -76 -42.5t-60 -34t-46 -27.5t-28 -18q-16 -11 -42.5 -32t-47.5 -38.5t-45.5 -38.5l-31.5 -27q-8 -8 -18.5 -19t-25.5 -27q-13 -15 -17 -19l-149 -156q-58 -63 -92.5 -132.5t-34.5 -118.5
q0 -30 0.5 -38t1.5 -10q5 -9 14 -19.5t14 -10.5q3 0 7 3q7 4 13 4q8 0 20 -5l2 -1q11 -2 17 -2q8 0 15 4l5 5q5 6 9 8q35 11 66.5 25t74.5 37q6 2 17 5q15 4 28.5 10t34.5 21q9 6 32 12q30 9 45 18q12 8 26 8q15 0 21 -9l6 -14v-11q1 -5 1 -10q0 -66 -23 -128.5t-71 -156.5
q-10 -21 -18 -36q-2 -5 -2 -11t2 -19q4 -21 4 -35q0 -3 -1 -6v-8q6 -13 11 -14q7 -1 13 -4q8 -4 17 -4q11 0 17.5 2.5t13.5 9.5q6 4 8.5 13t2.5 22q0 9 -1 23q-1 9 -1 13z" />
    <glyph glyph-name="H" unicode="H" horiz-adv-x="692" 
d="M528 338q-33 -18 -92.5 -31.5t-156.5 -19.5q32 56 103 163q84 126 124 206t40 157q-49 0 -69 -18t-34 -53q-9 -23 -30 -75q-24 -63 -39 -98.5t-24 -44.5q-23 -26 -41.5 -53.5t-43.5 -69.5q-28 -48 -49 -78.5t-48 -55.5q-51 -4 -92 -4q-27 0 -35.5 -2.5t-24.5 -15.5
q-4 -3 -7 -5q-24 -20 -24 -34q0 -24 69 -24q25 0 35 -4.5t21 -15.5l4 -4q-33 -59 -47 -91t-14 -44q0 -11 10 -11q6 0 25 7l2 1q36 11 47 18.5t23 23.5q10 14 17 22q9 12 19 16.5t21 5.5q12 1 12 7q0 5 -8 20q-2 5 -8 10q-7 7 -7 11q0 8 16 22l13 13q8 8 47 13q63 11 146 34
q39 11 47 11q4 0 4 -2q-40 -66 -90 -157q-24 -43 -33.5 -57.5t-17.5 -14.5q-6 2 -16 6q-24 9 -30 9t-6 -5q0 -8 17 -35q1 -16 3.5 -19t21.5 -5q15 -2 32 -4q19 0 37.5 7.5t33.5 35.5q33 57 53.5 96.5t42.5 83.5q19 38 29.5 55.5t22.5 29t29.5 18.5t54.5 18q8 2 18 6
q9 4 21 6t39 2q19 0 27 6t8 16t-5.5 22t-11.5 21l-1 1q-2 3 -5 3t-14 -5q-19 -9 -39.5 -15t-53.5 -6q-2 0 -12 1h-13q23 49 56.5 97.5t89.5 121.5q73 93 112.5 155.5t52.5 123.5q-21 7 -41 16q-9 4 -11 4q-3 0 -10 -10l-1 -1q-3 -7 -19 -11q-14 -3 -22.5 -9.5t-12.5 -22.5
q-5 -14 -7 -21q-11 -35 -21.5 -59.5t-36.5 -68.5t-80 -127.5t-142 -214.5z" />
    <glyph glyph-name="I" unicode="I" horiz-adv-x="494" 
d="M215 123q2 -3 8 -9q10 -11 10 -15t-10 -7q-14 -5 -37.5 -10.5t-70.5 -15.5q-19 -4 -38.5 -8.5t-26.5 -6.5q-14 -5 -32.5 -27.5t-18.5 -36.5v-5q-1 -2 -1 -4q0 -8 10 -8q11 0 39 9q36 9 57.5 13t34.5 4q11 0 18.5 -2.5t16.5 -7.5q5 0 10 6q6 5 15 10t29 8q50 7 120 25
q37 10 46 10q15 0 19.5 4t5.5 14q1 6 2 10l1 5q2 9 2 12q0 7 -8.5 9t-40.5 5q-50 4 -95 9q26 1 33.5 3.5t11.5 8.5l1 2q3 5 3 12q0 4 -2 14t-2 16q0 7 2 12q87 200 155 341.5t89 176.5q10 17 19 17q7 0 30 -12l7 -4q9 -6 32 -15q14 -6 22 -10q5 -2 9 -2q3 0 9 1q11 3 21 3
q3 0 6 -1h5q8 0 17 6q3 2 5 3q14 14 14 22q0 3 -2 9q-4 8 -4 15q0 11 -2 16.5t-10 10.5q-7 7 -14.5 10.5t-22.5 3.5q-13 0 -32 6q-21 7 -53 15t-58 9q-14 1 -56 8t-98 18q-17 3 -53 9q-8 2 -15 2q-14 0 -17 -8q-2 -3 -7 -5q-10 -3 -16 -12q-6 0 -19 -16.5t-15 -25.5
q-3 -9 -3 -13q0 -7 12 -7q15 0 51 -4q37 -4 56 -5q30 -1 58.5 -5t28.5 -11q-14 -70 -45 -139t-86 -171q-51 -95 -81.5 -160t-48.5 -134z" />
    <glyph glyph-name="J" unicode="J" horiz-adv-x="1038" 
d="M417 -392q1 1 16 8q38 21 58 31.5t47.5 25.5t45.5 25t22 14q20 20 57 55q56 54 91 92t64 85q38 54 58.5 84.5t32.5 51.5t20 41t22 57q10 26 21.5 56.5t25.5 65.5q57 174 79 339q0 3 1 7v6q0 16 -10 33q-8 13 -8 23q0 12 -11.5 29t-20.5 20q-4 1 -10 6q-11 10 -23 11
q-20 4 -56.5 10t-81.5 12t-90.5 10.5t-86.5 6.5h-10l-9 1q-17 0 -29.5 -4t-33.5 -16q-19 -11 -28.5 -27t-9.5 -30q0 -19 13 -22q4 -3 23 -3.5t56 -0.5q128 0 193 -6q61 -6 93.5 -33t32.5 -57q-3 -27 -4 -82q-3 -93 -14 -143q-6 -18 -19 -54q-43 -127 -80.5 -212.5
t-98.5 -173.5q-31 -47 -68 -83t-95 -84q-21 -17 -35 -29q-32 -26 -67.5 -43t-77.5 -33q-22 -8 -27 -11q-18 -8 -43 -8q-16 0 -32.5 3t-37.5 8q-24 5 -30 5q-17 0 -26 3t-21 10q-14 8 -25 12q-20 10 -42 31t-33 45l-3 12q0 13 4 57q3 25 4 39q5 35 24.5 70t58.5 91l19 27
q-26 -4 -45.5 -16.5t-31.5 -26.5q-14 -13 -30.5 -33.5t-31 -40.5t-25 -38.5t-12.5 -29.5q-2 -14 -5 -41q-5 -33 -7.5 -56.5t-2.5 -35.5q0 -3 1 -7v-3q2 -3 4 -18q3 -16 6.5 -28.5t10.5 -21.5q15 -21 35 -36.5t39.5 -26t34.5 -16t24 -7.5q9 -1 17 -5q8 -5 20 -5q10 0 19 -1
h16q47 0 101 9.5t78 19.5z" />
    <glyph glyph-name="K" unicode="K" horiz-adv-x="930" 
d="M287 498q-30 16 -49 16q-20 0 -43 -23q-18 -20 -18 -38q0 -16 15 -32q9 -10 18 -26q-7 -10 -17 -30q-5 -11 -8 -15l-12 -17q-71 -97 -112 -161.5t-64 -129.5q-4 -13 -4 -23q0 -29 22 -29q5 0 11 2q27 6 48 21.5t21 37.5q0 27 3 38.5t10 19.5q8 9 30 48q25 43 51.5 86.5
t69.5 103.5q12 -27 26 -49.5t34 -49.5q22 -31 30 -45q20 -29 38.5 -49.5t37 -35.5t39 -28t54.5 -34q12 -6 38 -16q41 -14 63 -28q21 -8 64 -8q36 0 75.5 5.5t57.5 12.5q16 1 39 9q12 5 18 6q3 1 8 2q7 1 9.5 5t2.5 18q0 7 -7.5 9.5t-30.5 2.5q-15 0 -77 -3h-9
q-15 0 -37.5 4.5t-49.5 11.5q-21 5 -25 6q-11 0 -30.5 4t-39.5 10t-35.5 12t-19.5 10q-13 17 -37 33q-22 16 -30 30l-10 26l-21 48q-11 20 -28 59q-16 35 -28.5 58t-32.5 48l-8 13q12 7 31 15.5t41 17.5q51 11 87 25t78 35q30 15 44 20q5 3 23 6q13 2 20 4.5t10 6.5
q7 6 26 8q19 1 27 6q6 5 20.5 12t32.5 13.5t33.5 11.5t26.5 7t35 14q19 10 28 13l2 1q28 11 44.5 23t46.5 46q14 16 14 21q0 2 -3 6q-3 3 -5 6q-7 8 -19 8q-17 0 -42 -13q-63 -46 -125 -74.5t-147 -60.5q-62 -22 -88 -34q-12 -6 -19 -8t-22 -6q-27 -6 -59 -16.5t-96 -37.5
q9 20 18 30t20 19q10 8 13 14t17.5 30t37.5 61.5t44.5 70.5t34.5 52q8 13 8 24q0 7 -5.5 11.5t-18.5 4.5l-2 1q-7 5 -11 5q-5 0 -13 -4q-10 -4 -23 -17t-35 -38q-8 -10 -17 -20q-2 -14 -8.5 -29t-21.5 -40t-46 -71t-87 -126z" />
    <glyph glyph-name="L" unicode="L" horiz-adv-x="729" 
d="M179 298q-2 -2 -2 -3q-50 -71 -57 -85q-7 -11 -17.5 -32t-23.5 -50t-24.5 -55.5t-23.5 -56.5l-4 -8q-6 -13 -6 -26q0 -17 12 -17q5 0 12 3q12 5 40.5 15t69.5 23.5t70 22t41 11.5q81 16 140 24.5t110 8.5l16 3q59 9 104 9l13 13q34 36 45.5 50.5t11.5 24.5q0 7 -7 15
q-4 4 -10 4q-3 0 -11 -2q-27 -6 -55 -6t-45 -3.5t-31 -9.5q-9 -3 -12 -3q-23 0 -57.5 -5t-79.5 -14q-11 -2 -49 -7q-25 -3 -44.5 -6t-29.5 -6q-18 -8 -39 -12t-38 -4q-28 0 -28 8q8 22 35.5 73t58.5 101q32 53 59 94t61 92l40 60q30 51 46.5 80t28.5 55.5t20 53.5t16 63
q-1 5 -10.5 14.5t-20.5 12.5q-15 0 -35 -14t-53 -54q-8 -26 -13 -57q-2 -14 -4.5 -24t-8 -23.5t-16.5 -33.5t-30 -49q-14 -23 -50 -82q-41 -68 -69 -113t-46 -73z" />
    <glyph glyph-name="M" unicode="M" horiz-adv-x="1071" 
d="M785 464q-5 -4 -17 -10q-23 -12 -37 -23q-12 -9 -28.5 -17.5t-63.5 -31.5l-40 -19h-3l-3 -1q-9 0 -25 11q-9 6 -11 7q-29 17 -40 42t-24 86q-7 32 -11 49q6 22 14 50t21 74.5t20.5 75t10.5 40.5q0 19 -9 31q-8 -8 -27 -12q-15 -2 -24.5 -7.5t-17.5 -20.5
q-19 -24 -26 -40.5t-13 -41.5l-10 -35q-1 -4 -2 -5q-4 -13 -11 -22q-3 0 -8 1t-9 1t-9 -1q-6 -1 -9 -1q-8 -2 -18 -17q-9 -13 -16 -18q-5 -4 -5 -20q0 -15 4 -35.5t8 -38.5q-9 -14 -22 -37q-20 -36 -36 -53q-25 -42 -57 -84.5t-82 -107.5q-50 -64 -80 -104.5t-54 -80.5
q-5 -12 -5 -21q0 -15 12 -15q7 0 18 -3q10 -3 15 -3q13 0 27 13q4 4 12 19q13 21 32 51t55 76q24 31 65 83t71.5 91t54.5 72q1 2 4 2q6 0 14.5 -14.5t8.5 -25.5q0 -13 17 -35t38 -42q7 -6 15.5 -8t25.5 -2q13 0 46 2h11q30 2 52 11.5t75 42.5q53 32 86 51q15 7 32.5 17
t44 29.5t71 54t108.5 86.5q-11 -43 -19 -69t-15.5 -43t-15.5 -30.5t-26 -40.5l-16 -24q-5 -9 -10 -28q-7 -25 -15 -42q-26 -62 -36 -95.5t-10 -65.5q0 -15 2 -35q2 -10 2 -26t3 -25t13 -18q4 -10 8.5 -13t14.5 -3q7 0 30 2q3 0 9 1q17 1 26 4t18 15q14 14 14 22q0 10 -18 36
q-8 10 -11 20.5t-3 26.5q0 8 1 36q2 32 3 51q1 8 2 20q0 10 1 16.5t5 17.5q13 42 33.5 84t56.5 106q62 112 85 171q17 46 17 81q0 15 -4 20q-9 8 -19 8q-13 0 -25 -16q-57 -41 -169 -140q-111 -99 -168 -140z" />
    <glyph glyph-name="N" unicode="N" horiz-adv-x="851" 
d="M330 434v-95q0 -9 1 -60q0 -47 1.5 -66.5t7.5 -36.5q2 -7 2 -17q0 -9 -2 -29q-2 -16 -2 -23q1 -16 16.5 -38.5t45.5 -47.5q11 -10 35 -10q33 0 66 18q28 13 46 24t33 27q4 4 18 12q22 12 43 28.5t47 49.5q36 53 84 120q26 36 39.5 56t24.5 39.5t20 41.5t17 51l2 9
q6 28 14.5 57t23.5 63q3 7 4 52q1 31 2.5 54t5.5 42q0 1 1 4v4q0 14 -11 25.5t-31 12.5q-10 0 -21.5 -6.5t-28.5 -19.5q-11 -8 -14 -10q-13 -9 -17.5 -35t-4.5 -91q0 -17 -2.5 -29t-6.5 -25q-4 -12 -4 -18q-1 -18 -4 -58q-4 -46 -5 -66q-1 -16 -7.5 -37t-23.5 -51.5
t-50 -74.5t-83 -102q-29 -36 -52.5 -56t-48.5 -27h-4l-4 -1q-16 0 -42 13q-2 1 -3 1q-11 6 -18.5 14.5t-9.5 15.5q-1 3 -1 4q-7 24 -11.5 45.5t-5.5 48.5q0 27 7 80q7 57 8 92q3 46 3 180q0 27 -13 45.5t-33 18.5q-11 0 -25 -10q-13 -8 -22 -12q-32 -15 -39 -22t-11 -27
l-2 -12q-7 -42 -13.5 -71t-12.5 -46t-14 -30t-21 -32q-43 -67 -139 -190q-53 -69 -87.5 -115.5t-66.5 -97.5q-30 -27 -30 -43q0 -10 14 -19q30 7 45 14t34 23q19 29 46.5 69.5t52.5 76.5t47.5 66t32.5 41q99 117 157 219z" />
    <glyph glyph-name="O" unicode="O" horiz-adv-x="542" 
d="M464 186q54 55 92 111.5t58 112.5q8 20 10.5 34t3.5 33q0 9 3 34.5t8 59.5q8 64 9 73q0 7 -2.5 24t-6.5 37.5t-8.5 38.5t-7.5 25q-14 32 -36.5 52t-54.5 23q-7 0 -26 -12q-24 -15 -39 -18q-17 -5 -31.5 -22t-22.5 -40q-6 -6 -22 -15q-10 -6 -12 -8h-2l-3 1q-14 0 -26 -13
q-110 -135 -189.5 -272.5t-132.5 -279.5q-8 -23 -16 -66t-8 -70q2 -29 26.5 -47.5t65.5 -18.5q37 1 70 7.5t60 20.5q46 24 104 72t136 123zM503 333q-25 -54 -76.5 -110.5t-146.5 -118.5q-7 -5 -22 -6t-21 -7q-2 -3 -16.5 -5t-31.5 -2q-18 0 -34 2t-24 6q-13 7 -19.5 28.5
t-6.5 49.5q0 18 2.5 35t6.5 26q59 129 119 227t150 195q5 5 11 8q6 2 10 6q0 -9 6 -12t19 -3q10 -1 14 -2l9 11q18 20 24.5 30.5t6.5 26.5q0 8 -2 18q5 -3 16 -10q22 -13 34.5 -24.5t17.5 -27.5q16 -46 16 -98q0 -55 -16.5 -114t-45.5 -129z" />
    <glyph glyph-name="P" unicode="P" horiz-adv-x="867" 
d="M472 360q11 13 15.5 15.5t14.5 3.5q14 0 26 2q53 5 178 22q68 10 95 13q46 4 78.5 15t55 28t40.5 39t45 61q6 9 17 25q5 8 5 17q0 12 -7 24t-19 26q-37 47 -77 78.5t-89 52.5t-109 35.5t-147 28.5q-51 12 -107 12q-61 0 -126 -13.5t-131 -38.5q-3 -2 -11 -5
q-18 -8 -33.5 -17t-31 -22t-27 -33t-13.5 -45q0 -4 8 -4q6 0 25 3q24 5 33 5t13 -3q9 16 23 28.5t22 16.5q127 43 250 43q159 0 325 -72q63 -46 86.5 -80t23.5 -66q0 -30 -96 -55t-275 -26q20 22 30 42t21 55q14 40 24 65q6 14 6 37q0 32 -10 37q-36 13 -46 13q-7 0 -17 -8
q-6 -5 -9 -7q-31 -19 -37.5 -33.5t-6.5 -46.5q-3 -36 -18 -75t-40 -86q-43 -2 -97 -3q-53 -1 -70.5 -5.5t-24.5 -24.5q-17 0 -40.5 -15.5t-23.5 -30.5v-3q1 -2 1 -3q2 -3 33 -4h27q20 0 52 1q31 1 50 1h17q8 1 10 1q11 0 11 -5t-20 -29q-28 -34 -41 -49q-80 -97 -123.5 -157
t-74.5 -132q0 -3 9 -4q12 -1 20 -5q39 16 69.5 48.5t74.5 92.5q4 5 7 13q3 9 8.5 18t17.5 23z" />
    <glyph glyph-name="Q" unicode="Q" horiz-adv-x="699" 
d="M79 150q-7 -12 -23 -39q-21 -34 -32 -57.5t-11 -47.5q0 -16 6 -32q6 -17 11 -26.5t12 -9.5q24 3 47 11.5t58 25.5q46 22 71 30q16 9 22 22q5 9 15 11q9 1 15 6q6 4 30 21q52 34 81 57q27 20 32 20q3 0 3 -5q0 -3 -3 -17q-9 -38 -9 -67q0 -10 2 -13t5 -4q4 -1 6 -5t2 -15
q0 -14 9 -14q1 0 4 1t5 1q39 6 54 12t21 15q6 8 11 10t11 3q13 2 21 12q9 10 25.5 23t41.5 32q21 15 31 23.5t13 12.5q5 9 5 15q0 14 -19 14q-15 0 -33 -8t-29 -21l-3 -3q-6 -7 -16 -17.5t-21.5 -21t-21.5 -17t-17 -6.5q-18 2 -18 6q0 2 2 7l1 3q10 37 18 96q6 49 13 53
q31 15 62 45.5t58 66t45 64t34 56.5q2 4 5 9q32 70 32 131q0 83 -59 167q-11 12 -39.5 23t-58.5 11q-23 0 -43 -7q-7 -3 -19 -7q-19 -7 -33 -15.5t-32 -29.5q-17 -20 -27.5 -27t-19.5 -11q-6 -2 -10 -5t-9 -11q-15 -23 -39 -55q-15 -21 -22 -32t-11 -26q-4 -18 -4 -24
q0 -4 2 -4t7 3q12 8 21 8q18 17 53 61q38 46 66.5 73t61.5 39q0 8 17 8q1 0 4 -1h4q9 -2 23 -10t28.5 -21t25 -28t13.5 -31q10 -65 10 -101q0 -51 -17 -93q-2 -6 -13 -20.5t-34 -45.5q-19 -23 -30.5 -38.5t-15.5 -23.5q-2 -5 -7.5 -12t-12.5 -15.5t-11.5 -13l-6.5 -6.5l2 2
v2v4q0 5 1 20q3 30 3 49q0 17 -2 33q-1 9 -9.5 13.5t-21.5 4.5q-11 0 -21 -2.5t-16 -6.5h-1q-17 -12 -27 -23t-10 -31l11 -129q-2 -10 -5.5 -14.5t-11.5 -8.5q-13 -8 -21 -18q-13 -17 -30 -31.5t-27 -14.5q-3 0 -14 -11q-11 -12 -21 -19.5t-20 -7.5t-14 -4q-6 -6 -21 -9
q-13 -3 -27 -17q-13 -12 -23 -13q-9 -1 -28 -12q-22 -13 -36 -15q-13 -3 -21 -3q-17 0 -17 13q0 11 12 31q3 6 18 28q14 21 21 32.5t7 17.5q1 10 14 27.5t36 43.5q14 16 20 23q9 10 32 44q36 54 62 90q6 9 29 14q12 3 18 5.5t8 8.5q2 9 10.5 26.5t23.5 44.5q16 31 23 45.5
t7 19.5q0 1 -2 2q-6 -1 -23 -2t-28 -3.5t-17 -8.5q-41 -37 -74 -78.5t-84 -111.5q-50 -71 -80 -109q-13 -17 -27.5 -43t-23.5 -46z" />
    <glyph glyph-name="R" unicode="R" horiz-adv-x="821" 
d="M856 477q19 14 34 35.5t24 45.5t13.5 45.5t4.5 35.5q0 17 -8 35t-20.5 33.5t-26 27t-23.5 14.5q-98 35 -175.5 54t-152.5 19q-56 0 -109 -12q-40 -10 -76 -30t-62.5 -47t-40.5 -57t-14 -59t15 -53t46 -42v-1q2 -2 2 -3q0 -7 -7 -23t-16.5 -33t-18 -29.5t-11.5 -12.5
q-25 11 -40 11q-13 0 -21.5 -7t-23.5 -26l-3 -4q-32 -19 -32 -37q0 -24 47 -29q25 -4 25 -11q0 -5 -12 -18q-13 -15 -19 -25q-15 -23 -60 -84q-40 -55 -61 -86.5t-25 -48.5q-4 -21 -4 -28q0 -11 15 -14q7 -1 12 -3q13 -3 18 -3t8 4q4 4 9 6q19 5 25 11t16 27q19 37 39 69
q5 7 18 28q53 83 92 134q1 1 2 3q3 7 9 7q7 0 20 -8t35 -28q71 -67 117.5 -119.5t68.5 -104.5q19 -44 47 -67t71 -23q6 0 21 -2q18 -3 26 -3q20 0 27 12q3 8 29 28q27 22 35 34q0 1 1 2v2q0 5 -11 5q-12 0 -32 -6t-38 -16h-4q-3 -1 -5 -1q-16 0 -33.5 12.5t-30.5 37.5
q-44 86 -103.5 157.5t-120.5 120.5q13 0 31 -1h30q80 0 147.5 14.5t135.5 53.5q32 19 68.5 43t55.5 38zM327 614q-4 12 -4 27q0 25 13 49.5t36 35.5q51 12 106 12q60 0 123 -13t139 -38q15 -4 31 -11.5t31.5 -21.5t25 -35t9.5 -49q0 -17 -20 -40t-53 -46.5t-69.5 -43.5
t-68.5 -30q-82 -23 -196 -23q-53 0 -104 5l-12 4q13 25 33 75q20 47 25 51q16 13 30 20q8 4 13.5 10t16.5 28q1 2 6 8q7 10 12 17.5t5 12.5q0 6 -8 6q-11 0 -40 -13q-15 -7 -26 -7q-4 0 -15 2q-9 2 -16 3q-6 -6 -11 -6t-12 11z" />
    <glyph glyph-name="S" unicode="S" horiz-adv-x="939" 
d="M167 278q22 9 22 14q0 4 -9 5.5t-21 1.5q-25 0 -52.5 -11.5t-51 -29t-38 -34.5t-14.5 -26q0 -56 13.5 -92.5t57.5 -61.5q45 -22 119.5 -43t163.5 -24q26 0 63 2q36 2 59 2q38 1 79.5 4.5t89 12.5t95 26t87.5 42q35 23 51 50t16 57q0 22 -8 46q-18 56 -58.5 91t-105.5 74
l-25 15q-31 19 -70 40.5t-80.5 43.5t-129.5 66q-14 6 -17 8q-26 12 -26 27q0 9 7 16.5t16 14.5h1q121 79 195 111.5t119 32.5q30 0 59 -15q25 -15 25 -39q0 -14 -12 -24t-35 -10h-8q-3 1 -4 1q-7 0 -7 -3q0 -1 3 -6q6 -9 8 -15q11 -24 12 -24t1 3q0 1 -1 3v7q0 14 5.5 17.5
t20.5 3.5q17 1 29 3q12 0 22.5 10.5t25.5 32.5q14 19 20 27q10 14 17.5 31t7.5 33q0 21 -16 34q-11 10 -30 15.5t-57 5.5t-58 -2t-39 -10q-56 -17 -133 -51t-149 -82l-5 -4q-25 -17 -45.5 -33t-40 -35.5t-32.5 -41.5t-14 -45q1 -35 18 -56t52 -35q17 -9 76 -35
q67 -30 117 -53q13 -6 40 -21.5t59.5 -36.5t64 -45t55.5 -47q4 -5 12 -13q12 -11 16.5 -20t4.5 -26q0 -23 -11 -39.5t-45 -29.5q-51 -15 -117 -25t-120 -10l-111 3q-53 0 -97.5 9t-98.5 27q-60 19 -87 40.5t-27 61.5q0 22 24.5 45.5t56.5 37.5z" />
    <glyph glyph-name="T" unicode="T" horiz-adv-x="447" 
d="M144 133q7 22 14 33t17 23t17 22t15 29q7 16 15 29.5t24 37.5q26 39 50 77l25 38q63 96 90.5 147t31.5 92q0 21 -7.5 27.5t-31.5 6.5q-24 -3 -35.5 -11.5t-19.5 -32.5q-20 -55 -40 -96.5t-55 -95.5q-27 -45 -48 -78t-50 -77q-20 -31 -39 -60t-44 -69q-19 -27 -34.5 -61.5
t-39.5 -97.5q-5 -11 -5 -16q0 -7 9 -7t33 6q7 2 22 4q17 3 25 6.5t17 15.5q11 15 19.5 37.5t19.5 56.5q2 5 5 14zM924 721q5 0 13 6q7 5 11 7q14 9 14 26q0 21 -12 25q-6 2 -22.5 3.5t-62.5 4.5q-53 4 -92.5 7t-73.5 7q-53 6 -98 8.5t-95 2.5q-54 0 -126 -3
q-25 -1 -43.5 -3.5t-46.5 -7.5q-45 -7 -78 -11q-34 -7 -69 -25t-80 -47q-4 -3 -13 -18q-10 -19 -17 -27q-19 -28 -19 -40q0 -8 9 -15q16 -16 32 -16q11 0 20.5 7t22.5 21l2 2q11 10 16.5 20.5t10.5 23.5q6 17 12 20q25 12 56 17.5t66 7.5q13 0 20 1.5t13 4.5q7 4 13.5 5.5
t21.5 1.5q42 0 69 1t49 3q9 0 28 1q16 1 27 1q64 0 192 -12q126 -11 192 -11q9 0 19 1h19z" />
    <glyph glyph-name="U" unicode="U" horiz-adv-x="671" 
d="M527 524l-104 -134q-25 -26 -69 -75q-69 -75 -114 -119.5t-97 -78.5q-16 -10 -21 -10q-2 0 -2 3q0 7 33 64q71 121 126 230q36 64 56 100.5t32.5 64.5t23.5 59t27 86q15 52 34 102q8 22 8 26q0 5 -9 5h-7l-5 -1q-12 0 -18 2.5t-9 7.5q-3 3 -6 3q-4 0 -14 -5
q-31 -15 -53.5 -44t-22.5 -48v-2v-2q2 -12 2 -23q0 -14 -5 -32q-5 -13 -5 -21q0 -6 2 -13q3 -7 3 -16q0 -30 -32 -82q-18 -30 -37.5 -64t-39.5 -69t-34.5 -62t-23.5 -46q-9 -16 -19 -36l-39 -78q-24 -48 -45.5 -90t-34.5 -66l-3 -5q-6 -7 -6 -11q0 -6 9 -16q4 -18 11 -18
q5 0 21 5q12 4 38 8q22 4 35.5 7.5t24.5 12.5q3 3 13 14q43 49 57.5 65t26 27.5t20.5 18t18 9.5q8 2 27 17t40 34.5t37.5 39t21.5 32.5q4 14 11 23t16 18q13 12 17 20t6 10t6 2q6 0 18.5 9t38.5 42q21 31 60 70t97 81q-24 -56 -86 -164q-63 -109 -94 -181t-31 -147
q0 -32 7 -62q3 -15 19 -24.5t44 -9.5t38.5 13t18.5 40v1q3 8 3 14q0 9 -10 15q-9 5 -9 11q-3 20 -3 42q0 41 10.5 86.5t29 90.5t40.5 85.5t46 77.5q32 47 52.5 80.5t35 59.5t25.5 49t39 85q9 18 9 27q0 7 -4.5 9.5t-15.5 5.5q-9 2 -12 3q-9 2 -18 2q-15 0 -25 -6t-25 -19
l-3 -3q-24 -28 -53 -57.5t-83 -83.5q-34 -34 -55.5 -56t-31.5 -35z" />
    <glyph glyph-name="V" unicode="V" horiz-adv-x="582" 
d="M666 579q-41 -59 -92.5 -116t-126.5 -133l-9 -9q-54 -49 -167 -145q-54 -46 -77 -66l-4 -2q-16 -9 -21 -9q-8 0 -8 14q0 3 1 5v7q2 16 5.5 39t8 48.5t10 50.5t10.5 40q11 33 25.5 72t28 72.5t27 65t22.5 49.5q21 43 32 78.5t11 79.5q-1 15 -2 46t-5 39.5t-19 8.5
q-10 0 -20.5 -3t-18.5 -10q-21 -20 -39.5 -43.5t-21.5 -35.5q-2 -7 -2 -15q0 -7 2 -19q1 -12 1 -18v-6q-1 -4 -1 -7q-14 -62 -34 -126.5t-55 -163.5q-56 -164 -80 -250q-5 -16 -5 -35q0 -2 1 -16v-18q0 -22 3.5 -36t13.5 -19q4 -3 12 -3q13 0 34 8t47 20q14 8 45 21
q49 21 65 36q26 26 78 69q74 62 108 102q7 8 19 20t35 34q32 31 47 47q79 81 142.5 156.5t113.5 153.5q5 7 8 12q26 40 38.5 60.5t30.5 50.5v1q16 28 16 37q0 13 -17 28q-15 17 -21 17q-3 0 -10 -3q-5 -3 -10 -5q-13 -5 -21.5 -13.5t-17.5 -21.5q-11 -14 -17 -17
q-5 -3 -6 -10t-2 -21q-1 -22 -5 -28q-5 -8 -24 -38q-10 -17 -18.5 -30t-25.5 -39.5t-25.5 -39.5t-12.5 -18z" />
    <glyph glyph-name="W" unicode="W" horiz-adv-x="780" 
d="M363 11q15 -4 31 -4q38 0 95 27q7 3 26 27q16 21 31 38t37 34q15 13 42 33q24 18 38.5 30.5t26.5 29.5q13 22 22.5 32t25.5 21q14 10 23 23.5t20 35.5q8 14 11 19q18 22 41 57q12 19 18 27q22 35 32 57t21 59q12 38 22 65q12 34 18.5 55.5t11 38.5t6 26.5t4.5 34.5
q2 17 5 38q6 46 6 60q0 13 -3 16.5t-12 6.5l-2 1q-19 10 -29 10q-13 0 -30 -19l-4 -3q-12 -9 -16.5 -21t-4.5 -48q0 -103 -30.5 -207.5t-96.5 -221.5q-8 -14 -23 -29q-8 -9 -12 -14q-52 -64 -93 -108.5t-75 -70.5q-16 -11 -41 -31q-30 -23 -35 -23q-4 0 -4 6l1 2v4
q11 73 21 114.5t23 83.5q8 26 12 40q8 22 8 33q0 13 -13 13q-5 0 -16 -2q-16 -3 -26 -3q-18 -1 -24.5 -3.5t-30.5 -18.5q-25 -17 -43 -29q-19 -13 -30 -23t-23 -24q-10 -11 -18.5 -19t-22.5 -18q-18 -14 -28 -23.5t-23 -23.5q-18 -21 -40.5 -41.5t-67.5 -55.5
q5 17 16.5 38.5t29.5 51.5q22 36 27 48q9 19 23.5 44.5t27.5 49.5q25 43 32 56q13 30 25 47.5t25 33.5q16 18 16 28q0 13 13.5 41t48.5 97q18 33 25 47q5 9 5 14q0 6 -17 8q-13 1 -19 3q-10 0 -25.5 -9.5t-31.5 -24.5t-28 -31.5t-16 -29.5q-17 -55 -46 -109t-79 -134
q-21 -34 -37 -60q-8 -16 -25 -44q-24 -40 -29 -53q-7 -18 -22 -50q-20 -44 -30.5 -73t-10.5 -58q0 -24 9 -45l1 -1q3 -7 9 -7q5 0 19 4q11 0 19.5 3.5t19 11.5t23 20.5t45.5 46.5q28 31 44.5 47.5t26 24.5t14 10t10.5 2q4 0 9 2t14.5 8.5t25 20.5t40.5 38q9 7 25 23
q15 15 17 15t2 -4t-4 -18q-5 -25 -19 -77q-13 -54 -19.5 -83t-6.5 -51q0 -31 16 -36z" />
    <glyph glyph-name="X" unicode="X" horiz-adv-x="845" 
d="M792 720q-27 -49 -75.5 -94t-108.5 -87q-5 -2 -13 -6q-12 -5 -16 -5q-5 0 -9 7.5t-10 30.5q-7 20 -11 37t-7 40q-5 30 -11 51.5t-22 50.5q-4 11 -13 25.5t-20 28.5t-23.5 23t-24.5 9q-5 0 -13 -6q-10 -8 -19 -10q-13 -5 -23.5 -18.5t-10.5 -27.5q0 -8 4 -14
q-2 -10 -2 -17q0 -5 2 -12q3 -8 3 -15q0 -11 12 -35t30 -49q20 -23 35 -56t44 -115q1 -2 3 -7q3 -5 3 -8q0 -6 -10.5 -16.5t-39.5 -33.5q-22 -19 -62 -54q-67 -59 -125 -107t-138 -106q-59 -39 -89 -69.5t-30 -46.5q0 -3 -1 -8v-6q0 -8 10 -8q7 0 17 2q8 2 18 4q12 1 19 6
q184 142 387 316q9 8 23 22q24 24 31 24q9 0 22 -32q11 -32 19.5 -52t22.5 -48q8 -18 14 -31q12 -24 35 -60q20 -30 31 -51q14 -20 25.5 -35.5t18.5 -22t11.5 -9.5t12.5 -6q7 -3 15 -7q-1 0 -2 -1v0l1 2q10 11 14 23q3 7 10 17q11 18 11 32q0 10 -3 17t-16 26q-15 25 -27 44
q-43 69 -72 143.5t-46 143.5q0 5 9 15t24 23t33.5 29t39.5 33q34 27 43 35l31 29q47 42 66.5 60t36 35t29.5 32t26 33q12 16 16 24t4 15q0 6 -7 25q-3 5 -5 11q-2 10 -22 10q-12 0 -26 -6.5t-26 -21.5q-30 -23 -76 -52q-34 -21 -34 -28q0 -3 6 -7t14 -8q10 -5 10 -10
q0 -3 -3 -9z" />
    <glyph glyph-name="Y" unicode="Y" horiz-adv-x="324" 
d="M181 433q-12 -30 -21 -45t-22 -32q-12 -17 -21.5 -33t-21.5 -46q-26 -62 -56 -129q-26 -59 -33 -78t-7 -33v-7q1 -5 1 -8q3 -21 17 -21q8 0 16 6q21 1 34 8.5t31 22.5l4 4q3 59 27.5 121.5t72.5 154.5q30 59 43 87q6 12 21 34t15 28q0 4 -11 4h-1h-1q0 1 12 8
q34 20 55 36q8 8 12.5 11t9.5 5q9 3 17 10q25 25 51.5 42t80.5 44q14 6 23 13t18 18q13 14 22 14q7 0 24 10t23 19q6 8 10.5 10.5t11.5 3.5q9 1 17 6t19 20q2 3 8 9q12 14 12 18q0 7 -25 12q-16 3 -26 3q-13 0 -31 -8l-6 -3q-27 -17 -77 -46q-77 -44 -95 -62
q-19 -20 -30 -28t-26 -16q-16 -8 -32 -18.5t-44 -33.5q-9 -8 -13.5 -10t-11.5 -3q-9 -2 -19 -6.5t-29 -18.5q-20 -12 -26 -12q-3 0 -3 3q0 2 2 8q1 3 2 5q24 63 47 107.5t57 100.5q2 4 11 20q12 21 16 31.5t4 24.5q0 15 -7.5 21.5t-19.5 6.5q-18 0 -34 -11q-35 -28 -52 -60
t-33 -81q-14 -44 -25 -64q-13 -22 -27 -62q-16 -47 -32 -78q-12 -23 -12 -37q0 -23 48 -23q3 0 7 -1q6 -1 9 -1q9 0 20 5z" />
    <glyph glyph-name="Z" unicode="Z" horiz-adv-x="741" 
d="M387 327q9 11 38 25q32 16 48 30q3 3 6 8t6.5 7.5t12.5 3.5q11 1 36 3t48.5 3.5t59 3t74.5 3.5q50 0 65.5 7.5t25.5 24.5v1q8 12 8 18q0 9 -17 9h-5q-6 -1 -8 -1q-6 -4 -33 -4h-35q-27 1 -40 1q-4 0 -17 1q-12 2 -19 2q-11 0 -21 -2l-15 -3q-21 -4 -25 -4q-2 0 -3 1
q0 2 10 12q15 14 25 26q31 35 50 78t19 64v8q1 4 1 8q0 18 -3 33.5t-8 21.5q-9 11 -43.5 30.5t-73.5 38.5q-24 15 -65 24.5t-70 9.5q-41 0 -54 -2t-23 -9q-32 -20 -46 -36t-15 -32q0 -6 9 -6q5 0 18 3q11 2 15 2q7 0 29 1h20q40 0 59.5 -3.5t47.5 -14.5q17 -8 21 -10
q47 -22 68 -35t21 -28q0 -6 2 -16q1 -11 1 -16q0 -9 -3.5 -20.5t-14 -29t-30 -41.5t-50.5 -58q-9 0 -18 -2q-10 -2 -21 -3q-35 -3 -64 -3q-36 0 -104 5q-12 1 -27 4q-26 5 -44 5q-8 0 -22 -6t-29 -15.5t-25.5 -19t-10.5 -15.5q0 -16 30 -16q12 -2 34 -4q21 -2 37 -4.5
t36 -9.5q1 0 3 2q10 7 22 7q7 4 89 8q27 1 31 1q-15 -11 -36 -27q-17 -13 -34 -25q-16 -11 -59 -40q-75 -50 -117.5 -82.5t-87.5 -81.5q-5 -7 -13 -18q-14 -19 -19 -33t-6 -48q0 -3 1 -13q0 -12 2 -19t8 -15q27 -15 58 -26.5t62 -11.5q38 3 63.5 5.5t51.5 8.5l13 3
q47 10 71 15q7 1 29 1q25 0 43 1.5t35 6.5q27 11 50.5 18t46.5 9q17 6 36.5 10.5t32.5 6.5q7 9 31 23q18 11 29 20.5t19 22.5q12 20 12 30q0 8 -9 8q-6 0 -16 -4q-9 -4 -31 -12q-44 -18 -68.5 -27t-55 -16.5t-73 -15t-109.5 -16.5q-24 -3 -50 -3q-42 0 -130 11
q-14 2 -30.5 14.5t-16.5 21.5q0 22 21.5 45.5t71.5 63.5q13 11 24 19.5t31 23.5q28 20 46 33t49 38z" />
    <glyph glyph-name="bracketleft" unicode="[" horiz-adv-x="613" 
d="M534 750q23 -5 45 -8t33 -3q4 0 8 1h2q15 17 22 32t14 34q6 17 9 22q14 19 14 28q0 5 -4.5 7t-12.5 3q-30 3 -67 6q-31 2 -43 4.5t-15 7.5q-8 11 -26 11q-19 0 -25 -13q-5 -12 -9 -31q-4 -20 -12.5 -40.5t-35.5 -59.5q-47 -81 -132 -226q-60 -101 -82.5 -141.5
t-30.5 -61.5q-19 -47 -51 -128q-27 -71 -41 -106.5t-32 -79.5t-31.5 -75.5t-24.5 -53.5q5 -12 10 -17t13 -5q4 0 17 3h2q1 0 5 1q13 3 39 6t86 7h4q2 1 3 1q8 0 22 -5q9 -3 12 -3q5 0 6 6q4 31 9 44t13 25q12 18 20 39q0 5 -19 5q-17 0 -71 -6q-49 -5 -69 -6q28 59 64 140
q25 54 29 62q68 149 141.5 277.5t143.5 224.5q21 30 36 61q6 12 9 12h1q1 -1 2 -1z" />
    <glyph glyph-name="backslash" unicode="\" horiz-adv-x="548" 
d="M373 233l14 -22q47 -73 76 -116q-16 0 -20 -5.5t-4 -25.5q2 -9 13.5 -19t27.5 -18.5t32 -14t27 -5.5q16 0 21.5 3.5t9.5 15.5q-11 16 -26.5 41t-31 51t-36.5 61t-49 84q-35 61 -49 84q-8 14 -27.5 39t-75.5 93q-79 97 -139 171q-25 27 -34 41t-14 29q-6 15 -12 24
q-5 8 -16 8q-18 0 -24 -12q-20 -18 -27 -56q4 -7 11 -19t11 -16q103 -103 184.5 -202t157.5 -214z" />
    <glyph glyph-name="bracketright" unicode="]" horiz-adv-x="501" 
d="M91 -19q-27 3 -53 3q-30 0 -35 -4q-12 -19 -17.5 -34.5t-9.5 -35.5q-4 -17 -7 -23q-10 -18 -10 -27q0 -7 5 -9t13 -2q31 1 70 3q25 2 34 2q19 0 23 -6q7 -8 22 -8q22 0 28 16q4 14 5 33q1 20 7 41.5t27 63.5q51 121 108 257q46 107 60.5 143t19.5 57q8 32 32 127
q7 31 23 95.5t25.5 100t21 77t18.5 63.5q-11 18 -22 18q-4 0 -19 -4q-2 -1 -3 -1t-4 -1q-12 -5 -37.5 -11.5t-85.5 -18.5q-6 -2 -13 -2q-5 0 -16 2q-8 1 -10 1q-7 0 -7 -6q0 -33 -3 -46t-10 -25q-9 -19 -15 -41q0 -4 9 -4q10 0 27.5 4t50.5 12q51 12 70 15q-28 -86 -57 -184
l-9 -28q-48 -158 -104.5 -294.5t-113.5 -240.5q-17 -33 -27 -65q-5 -14 -8 -14q-1 0 -1 1h-2z" />
    <glyph glyph-name="asciicircum" unicode="^" horiz-adv-x="452" 
d="M340 556l6 5q24 23 27 34q4 9 21 18q19 10 25 21q5 12 11.5 18.5t14.5 11.5q7 5 8 7q2 6 5 6q8 0 14 -24q8 -39 13.5 -62t10.5 -33.5t11 -14t15 -3.5q12 3 16.5 11t4.5 29q0 18 -6 83l-1 16q-3 28 -10 44.5t-25 16.5q-18 -2 -37.5 -15t-43.5 -41q-12 -15 -19.5 -22
t-20.5 -14q-11 -3 -44 -46l-9 -12q-16 -21 -27.5 -34.5t-22 -22.5t-19.5 -15t-24 -13q-14 -6 -17 -24q0 -4 8 -4h7q6 1 9 1q22 5 37 16.5t33 32.5q18 20 29 29z" />
    <glyph glyph-name="underscore" unicode="_" horiz-adv-x="639" 
d="M551 -47q-4 0 -36 -1q-38 -1 -58 -1q-67 0 -147 3t-163 10q-9 -3 -14 -4q-36 -10 -60.5 -22t-49.5 -37q-5 -5 -5 -7q0 -4 17 -6t67 -2q75 2 182 6q114 4 153 4q40 0 67 -2.5t48 -8.5q10 -3 19 -3q11 0 26 9q11 7 17 9q52 36 52 46t-43 10q-24 0 -72 -3z" />
    <glyph glyph-name="grave" unicode="`" horiz-adv-x="395" 
d="M330 615q24 -45 40 -57t45 -12q16 2 23 10.5t14 43.5v2l1 2q0 10 -10 30t-28 43q-46 49 -46 88q0 26 -4.5 35t-13.5 9q-5 0 -15 -2q-4 -1 -7 -2q-26 -5 -34 -11.5t-13 -18.5q-3 -9 -7 -14t-4 -9q0 -5 6 -17l2 -4q0 -2 1 -5q4 -22 6.5 -32.5t7 -20.5t12.5 -23t24 -35z" />
    <glyph glyph-name="a" unicode="a" horiz-adv-x="512" 
d="M98 101q41 69 89.5 132t104.5 115q63 61 87 61h3q2 -1 3 -1q21 -11 21 -27q0 -7 -4 -17q-1 -4 -4 -12q-17 -52 -33 -86t-40 -53l-12 -9q-11 -8 -15 -16q-5 -10 -22 -12q-9 -1 -12 -5t-4 -12q-3 -10 -8 -13q-8 -3 -27 -16.5t-49 -34.5q-22 -16 -35 -24.5t-17 -10.5
q-9 -5 -18 -5q-3 0 -8 1q-6 1 -10 1q-1 1 -5 1q-6 1 -6 4q0 4 5 13.5t16 25.5zM356 457q-25 -18 -54 -43.5t-57 -53.5t-48.5 -50.5t-31.5 -37.5l-144 -204q-13 -15 -16 -25t-4 -29v-2q0 -11 6.5 -20t18.5 -9h4q2 1 4 1q15 7 32 13t27 6q8 0 24 9t29 20q19 18 38 31.5
t27 14.5q9 0 14 8q3 4 5 5q22 26 41 41.5t30 15.5q6 0 19 5t27.5 13t26.5 17.5t15 18.5v-7l1 -4q0 -12 -6 -24l-1 -1q-4 -8 -19 -49q-10 -28 -19 -50.5t-14 -30.5q-4 -9 -4 -16q0 -13 16 -17q13 -3 29 -3t17 4q3 7 21 13q3 1 4 1q11 5 26 20q14 14 25 21q10 21 10 32
q0 8 -6 8l-2 -1h-2q-7 -1 -30 -15q-17 -10 -25 -14q2 26 15.5 51.5t38.5 63.5q42 62 52 94q5 14 8 53q2 34 5 47q-14 -6 -22 -6t-10.5 4.5t-3.5 12.5v3q2 13 2 27q0 52 -22 66q-8 7 -23 7q-20 0 -46 -10.5t-48 -24.5z" />
    <glyph glyph-name="b" unicode="b" horiz-adv-x="375" 
d="M357 258q-23 -49 -52 -88t-70 -68q-20 -14 -52 -27.5t-59 -18.5q-2 0 -3 -1q-27 -5 -44 -5q0 10 0.5 16.5t2.5 18.5q7 36 21.5 67t37.5 70l7 12q8 14 28 23q12 4 23 10.5t25 22.5l57 61q41 51 92 67q2 1 10 3q9 3 13 3q7 0 7 -9q0 -7 -5 -21q-2 -7 -6 -26
q-9 -36 -16.5 -64.5t-16.5 -45.5zM5 47q8 -5 10.5 -10.5t2.5 -17.5q2 -16 17 -24t30 -8q5 0 26.5 9t52.5 23q42 18 62 26t42 21t32 20q8 16 28 28q11 9 31 34q17 23 26 32q7 0 9 4q3 4 8 5q13 21 27 47.5t23 47.5q13 28 25 80t20 103q0 11 -16 14h-5q-3 1 -5 1
q-11 0 -22.5 -2t-24.5 -5q-26 -6 -51.5 -19.5t-62.5 -36.5q-15 -9 -18 -11l72 126q33 59 63.5 111t68.5 115l22 37q1 2 4 7q16 25 16 34q0 6 -4 9q-12 15 -25 15q-10 0 -19 -8q-20 -18 -44 -29q-7 -3 -7 -4q0 -37 -25 -85t-92 -155q-58 -93 -104 -168q-15 -24 -51 -77
q-63 -92 -99 -158.5t-43 -130.5z" />
    <glyph glyph-name="c" unicode="c" horiz-adv-x="329" 
d="M165 343q-10 -16 -37 -56q-61 -93 -88 -145.5t-27 -102.5q0 -3 1 -8v-8q3 -21 11 -29t25 -9h5q5 -1 8 -1q20 0 49 6t63 20t70 38.5t66 59.5q26 29 26 38q0 3 -3 3q-4 0 -11.5 -3.5t-13.5 -8.5q-23 -20 -45.5 -32.5t-62.5 -30.5q-28 -15 -55 -15q-23 0 -38 11.5t-15 33.5
q0 11 5 25l63 111q14 23 36 54.5t45.5 62t42 50t25.5 19.5t9.5 -2t8.5 -13q4 -7 4 -21q0 -15 -7 -54q-3 -22 -5 -34q14 0 27 12.5t30 35.5q10 14 13 18q10 13 14.5 34.5t9.5 63.5q0 2 3 23q0 11 -2 16t-7 10t-10 5q-2 0 -6 -1l-6 -2q-6 -1 -19 -5t-25.5 -8.5t-25 -9.5
t-17.5 -8q-13 -7 -32 -25t-40 -41t-37.5 -43.5t-24.5 -33.5z" />
    <glyph glyph-name="d" unicode="d" horiz-adv-x="387" 
d="M346 278q-36 -51 -88.5 -106t-98.5 -89q-9 -7 -30 -13q-11 -4 -16 -6q-8 -4 -12 -4q-6 0 -6 14q0 25 7 38q7 18 16 37t23.5 45t37.5 62.5t58 85.5q5 7 11.5 14.5t23.5 26.5q11 12 14 16q7 8 15 8q12 0 12 -14q0 -17 2 -47q2 -27 2 -37q0 -8 2.5 -15t8.5 -7q8 0 19 12
q6 6 14 18q6 10 10 14q6 7 6 12q0 4 -4 9q0 1 -1 3v3q0 6 9 11q9 6 9 26v11q0 40 -2.5 55.5t-13.5 21.5q-15 7 -28 7q-2 0 -4 -1h-3q-37 -7 -77 -38.5t-86 -91.5q-63 -89 -106 -165.5t-64 -149.5q-3 -12 -3 -22q0 -16 8 -25.5t26 -9.5q20 0 43.5 4.5t47.5 16.5q6 2 20.5 12
t32.5 23t32 24.5t20 17.5q17 15 40 39q15 15 29.5 28.5t33.5 30.5q7 7 27.5 33.5t46 61t49.5 70t36 58.5q13 22 30.5 58t32.5 72q2 4 5 11q23 54 34.5 83t16.5 45q4 13 10.5 40t13 62.5t10.5 65t4 47.5q0 2 -1 8v5q-4 20 -12.5 36t-27.5 25l-7 3q-26 11 -44 17t-35 6
q-20 0 -37 -6.5t-41 -20.5l-6 -3q-4 -2 -11.5 -9.5t-18.5 -19.5q-15 -17 -19 -20q-3 -3 -12 -17q-16 -25 -26 -35q11 -2 19 -2q19 0 31.5 10t30.5 37q14 18 25.5 25.5t31.5 9.5q27 0 45.5 -6t28.5 -27q18 -43 18 -90q0 -39 -10.5 -80t-31.5 -102q-4 -11 -13 -34.5t-22.5 -55
t-26.5 -60t-24 -47.5q-29 -53 -110 -159z" />
    <glyph glyph-name="e" unicode="e" horiz-adv-x="408" 
d="M302 275q-24 -6 -42 -10t-29 -4t-11 5q0 6 20 21q4 3 6 9q1 7 5.5 13.5t15.5 15.5q22 26 50.5 47.5t41.5 26.5q10 6 19 6q17 0 17 -17q0 -10 -7 -24q-17 -33 -41.5 -57.5t-44.5 -31.5zM419 299q53 88 53 131q0 47 -58 62q-14 0 -35 -9.5t-45.5 -25.5t-50.5 -37.5
t-50 -45.5q-8 -7 -18 -18t-25 -29q-18 -20 -29.5 -32.5t-16.5 -13.5q-5 -2 -14.5 -10t-19.5 -17.5t-17 -19t-7 -14.5q0 -3 2 -4v0q1 -1 1 -2q0 -4 -7 -14.5t-21 -29.5q-20 -26 -25 -35q-12 -18 -20 -42.5t-8 -51.5q0 -49 73 -49q16 0 65.5 16.5t109.5 42.5q37 15 74 35.5
t49 33.5q4 5 10 10q7 6 11 14t8 28q0 3 -2 3q-4 0 -19 -12q-18 -14 -25 -17q-9 -3 -22.5 -10t-36.5 -20q-33 -18 -42 -22l-5 -2q-44 -16 -70 -23.5t-45 -7.5q-13 0 -29.5 6.5t-16.5 24.5q1 23 7.5 34.5t31.5 39.5q11 13 24 28h14q9 -1 15 -1q70 0 131.5 24.5t100.5 81.5z
" />
    <glyph glyph-name="f" unicode="f" horiz-adv-x="348" 
d="M354 596l-101 -189q-18 -15 -50 -20.5t-105 -10.5q-41 -3 -60 -5q-5 -1 -13 -2q-13 -2 -18 -5q1 -19 6 -37q38 -19 68 -19q2 0 7 1h8l36 3l74 11l-9 -29q-37 -66 -112 -206q-83 -154 -139.5 -254.5t-123.5 -204.5q-1 -2 -2 -2q-6 0 -17 15.5t-21 33.5q-4 -23 -9 -55
q-8 -51 -15 -60q3 -7 15 -15.5t20 -9.5h3q4 -1 5 -1q11 0 23.5 2.5t14.5 6.5l113 216l65 102l85 147q9 18 30 62q24 50 41.5 85.5t36.5 70.5q47 86 81 123l35 7l22 8l51 21q77 28 96 49q5 6 5 12q0 8 -16 18l-5 -1q-48 -12 -75 -21l-78 -17q0 21 11.5 42t36.5 55
q20 29 31 46l66 99l57 85l56 82q9 4 16 4q13 0 13 -12v-29q-1 -19 -1 -27q0 -22 3 -22q1 0 3 5q6 12 12 35.5t15 62.5q6 27 11.5 48.5t9.5 32.5q-17 6 -31 6q-26 0 -52 -22.5t-82 -86.5q-9 -4 -12 -8t-6 -15q-5 -14 -11 -27.5t-18.5 -36.5t-37 -59.5t-62.5 -87.5z" />
    <glyph glyph-name="g" unicode="g" horiz-adv-x="440" 
d="M567 -193q6 -6 14 -10q4 -1 5 -2q13 -8 13 -12t-13 -20l-6 -6q-6 -7 -50.5 -31.5t-111.5 -57.5q-7 0 -11 -3q-2 -1 -4 -1h-2q-3 1 -4 1q-9 -1 -16 -9q-6 -7 -12 -9q-16 -3 -49.5 -11t-84.5 -22q-62 -16 -99.5 -25t-50.5 -10h-7q-5 -1 -7 -1q-6 0 -15 1h-13q-11 0 -18 -2
q-2 -1 -5 -2q-24 -11 -39 -11h-5q-4 1 -5 1q-42 7 -80 16t-57 18q-26 12 -47 26t-32 34q-2 4 -2 7q0 1 1 2v2t1 3q3 18 9.5 31.5t24.5 20.5q10 4 22.5 12.5t20.5 16.5q5 6 33 29q50 42 79 71q-26 -1 -37.5 -4.5t-15.5 -8.5q-14 -16 -30 -25.5t-40 -18.5q-14 -6 -24.5 -11.5
t-22 -15.5t-26.5 -27t-35 -45q-3 -3 -5 -11q-3 -11 -7 -12q-3 -1 -7 -1q-9 0 -10 -6q0 -4 -1 -11v-9q0 -13 5 -26t20 -30q16 -21 39 -34t57 -19q8 -2 28 -6q17 -3 28.5 -5.5t13.5 -5.5q3 -2 11 -2q6 0 28 2q52 6 95 6q9 0 37 10q25 8 31 8q23 0 50 1.5t33 6.5q6 4 29 10
t77 19q6 1 17 4q75 17 117 30t67 29q5 4 20 6q20 2 31 9q10 4 25.5 12.5t27.5 15.5l14 7q9 6 23 22t38 45q18 21 20 23q6 9 6 27q0 14 -3.5 27.5t-7.5 17.5q-19 26 -44 38.5t-40 12.5q-10 0 -26 8.5t-43 26.5q-3 2 -5 2q-1 0 -3 -1q-4 -1 -6 -1q-16 5 -43.5 11.5t-54.5 12.5
t-49 10t-30 4q-8 -4 -14 -4q-7 0 -10 5q-4 4 -19 6t-42 5q-26 3 -43 5q5 14 8.5 18t12.5 8l3 1q17 5 17 7q0 1 -7 3q-2 1 -3 1q-10 3 -19 3l-6 -1h-8q17 10 29 22t14 19q4 8 19.5 22.5t34.5 27.5t27 21t19 24q14 17 29 41.5t29.5 52t24.5 52t15 43.5q35 6 66.5 12t63 12.5
t48.5 11t19 5.5q19 5 36.5 17.5t19.5 24.5q2 9 2 11q0 3 -3 3q-1 0 -3 -1q-5 -1 -9 -1q-10 -1 -43 -5.5t-58.5 -8t-46.5 -7t-25 -5.5q-3 -1 -11 -7q-14 -10 -22 -13q-15 -10 -34 -10q-3 0 -6 1h-7q7 22 7 30t-9 16q-3 2 -5 4q-10 6 -25 6q-30 0 -69 -20q-22 -12 -50.5 -34
t-36.5 -34q-20 -26 -27 -26q-6 0 -9 16q-1 6 -3 11.5t-6 5.5q-6 0 -13 -10q-3 -5 -19 -22.5t-38.5 -40.5t-44 -44.5t-38.5 -36.5l-2 -2q-6 -6 -6 -9q0 -2 2 -5q2 -6 11 -6q15 0 44 19l-7 -34q-13 -31 -20.5 -54.5t-7.5 -46.5q0 -36 20 -66q6 -18 45 -18q16 0 35 5
q-31 -16 -41 -31.5t-11 -29.5q1 -17 16 -26.5t32 -9.5q82 0 132 -2t78.5 -6.5t46 -11.5t42.5 -20q6 -3 34 -15q35 -15 59 -26.5t37 -22.5zM190 276q8 19 21 36.5t25 24.5q21 26 31.5 36t20.5 11q10 0 18 11q5 5 12 5q8 0 19 -7q10 -6 16.5 -13.5t6.5 -20.5
q-11 -62 -17 -84.5t-15 -32.5q-63 -90 -100.5 -130t-80.5 -41q-21 0 -27 10q-3 5 -3 12t5 19q4 10 10 24t20 48q16 41 24.5 61.5t13.5 30.5z" />
    <glyph glyph-name="h" unicode="h" horiz-adv-x="458" 
d="M473 833q6 15 21 44.5t35 68.5q26 52 38 75t16 35q9 -15 13.5 -30t6.5 -31q7 21 9 37t2 61q0 24 -24 24h-7q-16 0 -26.5 -6.5t-24.5 -32.5l-39 -79q-16 -32 -23 -45.5t-9 -18t-7.5 -14.5t-22.5 -40q-27 -55 -61 -114.5t-90 -153.5q-58 -96 -96.5 -163.5t-75.5 -141.5
t-64.5 -149.5t-40.5 -145.5q0 -1 -1 -3v-2q0 -3 2 -8q1 -4 1 -5q12 7 40 12q18 4 23 7q30 18 53.5 39.5t54.5 54.5q51 52 84 78q4 3 29 34q36 45 62.5 75t48.5 43q-18 -40 -54 -96q-18 -30 -20 -37q-3 -9 -12 -27q-11 -22 -16 -38q-16 -56 -16 -84q0 -20 8 -46
q8 -19 27.5 -27t42.5 -8q18 0 31 4q12 3 24 10.5t18 20.5q25 12 44 30.5t19 27.5q0 4 -8 4q-59 -19 -87 -19q-20 0 -25.5 9t-6.5 28l-1 8q0 15 3 30t12 38.5t28 61t49 91.5q17 30 30 64t20 60q-18 -13 -35 -13q-8 0 -18 3q-4 0 -10 2q-5 1 -6 1q-7 0 -18 -10q-12 -8 -33 -27
t-41 -38t-35.5 -35t-18.5 -21q-19 -30 -42.5 -54t-72.5 -68q-57 -52 -94 -87q22 71 62.5 149t97.5 173l194 337z" />
    <glyph glyph-name="i" unicode="i" horiz-adv-x="249" 
d="M96 174q-3 -5 -11.5 -21t-18.5 -34q-24 -47 -33.5 -63.5t-17.5 -31.5q-4 -8 -5 -9q-8 -13 -8 -16q0 -2 4 -5q2 -2 6 -2q12 0 33.5 14t31.5 26q25 30 52 72.5t69 113.5q41 69 57 93q17 28 24.5 42t12.5 26t9 26t13 50q3 10 3 18q0 12 -6 16.5t-18 6.5h-4l-5 1
q-20 0 -31 -15q-7 -8 -28 -27q-15 -14 -24.5 -24t-10.5 -16q0 -9 3.5 -17.5t11.5 -10.5q-14 -31 -28 -61.5t-29 -60.5t-28.5 -54.5t-23.5 -36.5zM427 751q-5 4 -13 4q-9 0 -20.5 -5t-22.5 -13q-19 -12 -25 -25t-6 -37q0 -29 13 -52q4 -7 8 -7t15 11q25 18 41 36t20 43
q2 11 2 19q0 19 -12 26z" />
    <glyph glyph-name="j" unicode="j" horiz-adv-x="219" 
d="M266 630q6 6 19 17q24 20 27 28q4 9 18 22l11 11l5 5q17 17 31 25.5t43 18.5q4 1 14 5q13 7 24 10.5t29 5.5q9 1 15 6t17 18q11 15 21 26q-2 1 -3 2q-12 8 -23 8h-6q-5 -1 -8 -1q-30 -5 -45.5 -8t-26.5 -7.5t-23 -12.5t-37 -27q-1 -1 -12 -9q-29 -20 -52 -43.5t-49 -52.5
q-9 -10 -10 -11q-8 -9 -8 -18q1 -23 16 -23q7 0 13 5zM141 324q-26 -85 -62.5 -173.5t-85.5 -188.5q-3 -8 -20 -36.5t-44 -68t-59.5 -77.5t-64.5 -64q-24 -14 -44 -14q-11 0 -29 6q-25 4 -26 16q-1 8 -11.5 18t-19.5 10t-13 -19q-3 -14 -7 -25q-4 -13 -4 -22q0 -11 4 -16
t11 -8q4 -2 5 -3q17 -9 23 -11.5t12 -2.5q1 0 4 1h7q10 0 14 -1t6 -2q1 -1 2 -1h1q2 1 3 1l9 4q35 14 58 27t45 39q2 2 8 5q9 4 16 10q48 46 79 89t70 108q23 37 34 55q61 105 100.5 208.5t88.5 258.5q-3 1 -5 2q-27 12 -32 12t-12 -7q-6 -7 -9 -9q-18 -16 -28 -30.5
t-10 -33.5q-1 -16 -8 -39q-5 -13 -6 -18z" />
    <glyph glyph-name="k" unicode="k" horiz-adv-x="564" 
d="M24 125q-6 -13 -12.5 -35.5t-6.5 -33.5q0 -6 3 -6q30 0 50 20q12 14 32 37q14 17 24 27.5t25 23t40.5 30t69.5 45.5q4 -15 16 -54q14 -46 16 -59q5 -22 11 -39t20 -46q20 -40 40 -51t59 -13h20q12 -1 17 -1q24 0 42 3.5t35.5 13t35.5 29.5t38 52q-17 0 -29.5 -7
t-26.5 -19t-19 -12q-41 0 -63 2t-36.5 9t-24 20t-23.5 40q-8 20 -21 93l-1 5q-1 6 -2 23l-2 22q0 9 7.5 23.5t12.5 18.5q27 17 55 36.5t40 29.5q10 8 24.5 15t50.5 22q33 15 42 19q9 5 15 16t19 43q-29 -2 -45.5 -6.5t-44.5 -16.5q-22 -10 -24 -11q-35 -16 -58 -27.5
t-45.5 -25t-47 -30.5t-59.5 -42q-6 -3 -23 -16q-19 -13 -35.5 -23.5t-33.5 -19.5l176 254q7 9 20 31t30.5 52.5t33 59t21.5 40.5l190 381h-1q-18 12 -24 12q-5 0 -10 -5l-9 -9q-32 -31 -54 -41q-112 -238 -198 -396t-205 -314q-40 -58 -70 -95.5t-58 -70.5q-17 -19 -19 -23z
" />
    <glyph glyph-name="l" unicode="l" horiz-adv-x="239" 
d="M203 312l66 113q9 14 30 53t52 97q37 69 45 84.5t17 30.5l27 47q4 6 14 18q14 19 23.5 35t15.5 39q10 31 15 49q22 72 27.5 91.5t5.5 26.5q0 4 -2 6q-1 1 -3 2q-7 6 -16 6h-4q-5 -1 -6 -1q-22 -2 -38 -12t-43 -40q0 -24 -1.5 -39t-4 -28t-8.5 -28.5t-16 -42.5l-1 -2
q-6 -17 -6 -34v-19t-2 -7q-2 -3 -26 -45q-22 -38 -43 -75.5t-45 -78.5t-40.5 -69t-22.5 -36l-87 -135q-5 -7 -16.5 -30t-28.5 -58t-31 -65.5t-55 -119.5q-3 -7 -3 -13t6 -18l3 -5q0 -2 1 -4q1 -8 4 -12.5t10 -4.5q14 1 38.5 7.5t35.5 15.5q11 11 28 30q18 19 27 27
q-9 16 -9 37q-28 -25 -47 -29q1 18 20 57q20 42 46 91.5t48 87.5z" />
    <glyph glyph-name="m" unicode="m" horiz-adv-x="762" 
d="M448 315q13 22 18.5 35.5t5.5 24.5q0 12 -10 32q-10 18 -20 18q-14 0 -50 -35l-296 -274l44 72l61 99l1 2q15 21 23.5 35t20 36.5t25.5 57t32 85.5q7 18 7 25q0 9 -17 18q-5 2 -9 2q-11 0 -29 -14q-13 -11 -21 -13q-6 -2 -19 -12q-17 -12 -25 -15q-7 -1 -7 -15
q0 -15 8 -42q2 -7 2 -22q0 -29 -7 -43q-9 -21 -39.5 -73.5t-71.5 -113.5q-12 -18 -30.5 -49t-45.5 -76q-23 -39 -36.5 -61.5t-18.5 -28.5l-1 -2v-1q0 -6 10.5 -9.5t24.5 -3.5q17 0 27 6q9 5 26.5 24t47.5 53q8 9 10 11q4 5 25 24.5t47 43t130 116.5q37 32 74 66q7 6 9 6
t2 -2q0 -8 -39 -86q-46 -95 -80 -168l-1 -2q-9 -14 -9 -20q0 -7 11 -8q2 0 8 -1h10q30 0 59 24q5 4 12 12q9 11 24 26.5t45 43.5q21 20 38.5 36t38.5 33t48.5 39t72.5 57q-17 -51 -24 -86.5t-9 -85.5q0 -46 31 -81.5t75 -35.5l5 1h5q9 1 22 10q20 12 37 14q10 2 23 16t13 22
q0 7 -9 7q-6 0 -18 -4q-25 -9 -41 -9q-21 0 -31 15t-15 48q-3 22 -3 44q0 38 8.5 71t23.5 76l4 11q1 3 7 12q10 14 10 20q0 4 -3 7q-17 15 -40 15q-11 0 -16 -3q-64 -32 -135.5 -88t-177.5 -156q43 101 92 187z" />
    <glyph glyph-name="n" unicode="n" horiz-adv-x="573" 
d="M173 182q6 10 14 41q6 22 9 28q5 11 14 23t12 23q23 58 40 106q17 49 22 80q1 4 4 13q5 12 5 19q0 8 -7 14q-3 3 -14 3q-15 0 -34.5 -4.5t-24.5 -9.5q-16 -14 -44 -31q-34 -23 -42 -39q-3 -6 -3 -10t5 -4t14 4.5l27 13.5q14 8 21 11q-4 -29 -10.5 -52t-16.5 -49
q-11 -34 -31.5 -82t-51.5 -116q-44 -98 -65 -148q0 -1 -3 -6q-6 -11 -6 -15q0 -6 8 -6q6 0 16 3h3q24 2 38 8t28 28q15 20 32 36.5t58 52.5q24 21 45 40q50 42 90 81t79 81q39 41 44 41l1 -1v0q3 -8 3 -17q0 -20 -21 -84q-20 -65 -32 -108v-2q-11 -33 -11 -47q0 -21 18 -50
q10 -17 24 -30t29 -21q10 -4 25 -4q20 0 37 7.5t23 22.5q5 13 20 22q13 9 18 20q5 9 5 13q0 2 -3 2q-4 0 -22 -9q-16 -8 -22 -9q-11 -3 -20 -3q-32 0 -52 40q-5 12 -5 21q0 7 6 18q6 10 8 17q6 19 11 41t10 34q17 41 26 70t9 58q0 30 -11 56q-3 8 -22 8q-15 0 -32.5 -5.5
t-29.5 -14.5q-7 -5 -20 -17t-29.5 -28t-33.5 -33l-24 -24q-25 -27 -79 -74q-59 -52 -86 -81q-10 -12 -12 -12v1q0 5 19 45z" />
    <glyph glyph-name="o" unicode="o" horiz-adv-x="392" 
d="M296 158q8 8 22 22.5t39 41.5q21 22 24 25q19 17 31 37t33 74q12 28 18.5 50.5t6.5 46.5q0 16 -9.5 25t-25.5 9q-9 0 -18 -3q-12 -4 -42 -13q-38 -11 -55.5 -17.5t-26.5 -17.5q-14 -15 -21.5 -24.5t-12.5 -20.5v5v6q0 22 -4 22q-1 0 -5 -4q-2 -2 -14 -3q-17 -2 -31.5 -7
t-28.5 -22q-10 -13 -28 -28q-12 -11 -19 -19t-12 -22q-4 -12 -10.5 -26.5t-13.5 -26.5q-4 -6 -11 -31q-3 -14 -6 -21q-12 -38 -35 -104q-18 -53 -23 -69.5t-5 -25.5q0 -2 1 -6q1 -3 1 -5t1 -4q1 -8 4 -11t14 -3q8 1 17 2q19 2 28 4.5t16 9.5q6 6 10.5 9t14.5 6
q9 3 21.5 13.5t25.5 25.5q10 10 31 14q19 5 27 13q17 19 37 40t34 33zM205 138q-20 -18 -32 -27.5t-21 -15t-17.5 -9t-24.5 -8.5q-10 -2 -14 -2q-8 0 -8 4q0 3 4 10q3 5 4 7q18 34 27 52t30 59q11 23 18 37q25 55 47 81t55 27q12 1 17 5.5t9 15.5q1 3 3 7q9 17 20.5 21.5
t49.5 4.5q14 0 18.5 -5t4.5 -21q0 -11 -3 -25t-9 -24q-20 -37 -36 -61t-26 -27q-11 -3 -72 -63q-19 -18 -44 -43z" />
    <glyph glyph-name="p" unicode="p" horiz-adv-x="474" 
d="M-239 -566q75 89 128 176.5t124 220.5q44 83 70 130q19 13 52 29t54 22q3 2 16 4q18 3 23 6q24 14 46 33t48 44q21 20 24 21q4 1 23.5 19t41.5 39t41.5 41t23.5 26q33 47 51 87.5t18 80.5q0 22 -6 43q-7 20 -18.5 27t-23.5 7h-7q-3 -1 -5 -1l-7 -1q-45 -5 -69.5 -10
t-62.5 -21q-17 -6 -38 -29q-16 -16 -24 -17v9q1 6 1 8q0 14 -4 20.5t-16 6.5q-21 0 -34 -2t-18 -11q-17 -28 -22.5 -45.5t-8.5 -40.5q-2 -15 -4 -23q-3 -24 -9.5 -39t-16.5 -30q-7 -11 -10.5 -19t-3.5 -19q0 -13 -8 -32.5t-33 -71.5q-29 -60 -46 -96h-4q-2 -1 -3 -1
q-10 0 -31 11q-7 3 -14 3q-18 0 -30 -17q-8 -12 -10.5 -21t-5.5 -30q-2 -11 -3 -18q-1 -10 -13 -30q-3 -6 -4 -7q-6 -7 -12.5 -19t-18.5 -36q-12 -23 -19.5 -36.5t-12.5 -17.5q-8 -8 -10.5 -12.5t-2.5 -14.5q0 -5 -14 -37q-12 -25 -18.5 -41t-9.5 -30q-2 -9 -13 -25
q-11 -18 -11 -25q0 -13 -12 -47.5t-26 -57.5q-10 -17 -14 -25.5t-4 -18.5v-5q2 -22 5.5 -27.5t20.5 -6.5zM-6 -116q0 -4 -3.5 -9.5t-14.5 -22.5q-29 -45 -48.5 -75t-56.5 -91q-17 -25 -24 -25q-3 0 -3 7q0 11 7 29q3 7 17 39q25 58 33 66q7 8 10 21q3 14 9 23q12 19 28 46
q17 28 23 35t16 8q14 -1 14 -15q0 -6 -4 -23q-2 -7 -3 -13zM426 245q-29 -29 -60 -61q-39 -40 -52.5 -51.5t-23.5 -14.5q-1 0 -6 -2q-8 -2 -13.5 -5t-13.5 -13q-10 -13 -52 -34l-5 -3q-27 -13 -43.5 -19t-40.5 -7l141 299q33 16 50 40q6 6 23 11q12 3 15 6q11 10 55 21l16 4
q8 2 15 2q29 0 29 -46v-10q-1 -8 -1 -12q-6 -45 -14.5 -69t-18.5 -36z" />
    <glyph glyph-name="q" unicode="q" horiz-adv-x="546" 
d="M477 287q-3 -9 -39 -37q-38 -28 -63 -53t-36 -53q-32 -16 -68.5 -31t-71 -26.5t-59 -18t-34.5 -6.5q-2 0 -4 1h-1l-3 3q-5 3 -5 8q0 9 12 34q15 36 27 53.5t36 41.5q58 59 95 94q16 14 29 25.5t28 23.5q41 33 66.5 46.5t44.5 13.5q12 0 25 -5l5 -2q16 -5 21.5 -12
t5.5 -30q0 -19 -2 -35.5t-9 -34.5zM176 265q-9 -10 -30 -30q-67 -68 -103 -115t-36 -94q0 -2 1 -6v-6q5 -26 38 -26q40 0 118 36q10 3 37 12q63 20 119 35q18 1 31 11t42 42l2 2q-19 -63 -56.5 -126.5t-100.5 -154.5q-73 -106 -113 -176.5t-54 -142.5l3 -3q9 -9 14 -11.5
t14 -2.5q32 16 56.5 39.5t24.5 50.5q-9 4 -9 9q0 2 2 7l1 5q16 40 24.5 58.5t17 34t20 32t39.5 53.5q29 40 36 49q21 29 35.5 49.5t22 33t13.5 24.5t12 28q4 11 18.5 38.5t41.5 76.5q35 65 58 109t30 63q3 8 6 24q2 16 6.5 36.5t13.5 51.5q4 13 4 29q0 34 -15 55
q-20 25 -52 25q-18 0 -49 -8q-23 -5 -33 -9t-22 -11l-1 -1q-48 -34 -85.5 -62t-56.5 -43t-29 -24.5t-15 -15.5q-1 -1 -8 -11q-19 -26 -33 -40z" />
    <glyph glyph-name="r" unicode="r" horiz-adv-x="320" 
d="M5 2h3q13 -3 19 -3q12 0 22.5 11t41.5 51l5 7q34 58 82 124t97 123q4 5 17.5 18t27 24.5t28.5 25t26 22.5q14 -17 24 -17q4 0 10 3q13 6 29.5 28t32.5 54q11 22 11 37q0 8 -3 11q-7 7 -17 7h-3q-2 -1 -3 -1q-23 -10 -73 -47q-20 -16 -32 -24q-2 -2 -4 -6q-1 -4 -4.5 -10
t-14 -18.5t-29.5 -32t-50 -47.5q-2 -1 -7 -6q-2 -2 -3 -2q0 1 1 1v8t4 17t8.5 25.5t11.5 29.5t13 28h-10l-8 1q-31 0 -40 -12q-18 -23 -29.5 -38.5t-17.5 -27.5t-10 -23.5t-7 -27.5t-14.5 -45t-22.5 -48q-15 -26 -22 -40q-20 -35 -28.5 -48t-22.5 -29q-10 -10 -17.5 -31.5
t-20.5 -67.5z" />
    <glyph glyph-name="s" unicode="s" horiz-adv-x="320" 
d="M266 81q0 7 -3 20q-2 10 -2 15q0 13 -2.5 22t-10.5 22q-9 13 -12 19t-4 10q-2 7 -8 15q-16 23 -20 35.5t-4 32.5q1 25 4 35.5t9 19.5q5 8 7 16q5 17 18 29.5t40 25.5q8 3 19 8q17 7 24 8q13 0 19.5 -7.5t6.5 -17.5q0 -7 -3 -12q-5 -12 -17.5 -29.5t-29.5 -39.5
q-14 -17 -15 -20q5 -10 10 -10q2 0 8 3l6 3q14 12 30 31t33 41t29.5 39.5t17.5 27.5q7 13 7 24q0 13 -9 20q-13 9 -36 9q-36 0 -79 -21q-16 -8 -37 -22t-41.5 -31t-37 -36t-24.5 -37q0 -1 -7 -15q-10 -23 -15.5 -39.5t-5.5 -37.5q0 -19 8 -46.5t25 -53.5q11 -15 15.5 -24.5
t8.5 -22.5q2 -10 3 -12q4 -8 4 -13q0 -12 -25 -12q-13 0 -32 3.5t-36.5 7.5t-35.5 9.5t-27 9.5q-4 17 -13 17h-3l-2 -1q-15 -9 -20.5 -15t-9.5 -16q-21 -5 -32.5 -16.5t-11.5 -19.5t7.5 -12.5t15.5 -5.5q22 -8 56.5 -16t59.5 -9q23 0 52 5t50 11q13 4 26.5 14.5t25 23.5
t19 23.5t7.5 14.5z" />
    <glyph glyph-name="t" unicode="t" horiz-adv-x="324" 
d="M175 360q-53 -85 -82.5 -134.5t-43 -75t-17 -37t-5.5 -25.5q-1 -7 -2 -13q-2 -14 -2 -24q0 -21 10 -40q6 -12 15 -12q10 0 30 12q18 0 41 18.5t23 51.5v6q-1 5 -1 6q-7 -15 -17 -15t-10 11q9 31 21 62.5t29.5 65t43 72.5t60.5 86q130 16 179.5 23t58.5 12q9 4 24 8
t23.5 9.5t15.5 19.5q7 6 14 16t7 15q0 3 -4 3q-5 0 -18 -6q-7 -3 -15.5 -4t-27.5 -1q-15 0 -62 -5q-75 -7 -125 -10q-8 0 -18 -1q-4 -1 -6 -1q-1 0 -2 2q0 2 12 17l14 18q33 50 59 89.5t61 94.5q45 70 55 86q16 27 16 40q0 11 -10 11t-19 -7q-13 -9 -21 -11.5t-16 -3.5
q-7 0 -10 -2q-6 -4 -23 -34q-16 -31 -26 -46q-45 -82 -79 -137.5t-83 -122.5q-15 0 -45 -13q-21 -9 -28 -9h-1q-13 -1 -22 -8.5t-25 -38.5q-6 -13 -6 -29q0 -11 3 -36q13 23 31.5 38.5t26.5 15.5q2 0 2 -2q0 -1 -3 -5z" />
    <glyph glyph-name="u" unicode="u" horiz-adv-x="524" 
d="M317 450q0 1 1 3v4q0 4 -2 16q-2 13 -3 23q-3 14 -11.5 19.5t-23.5 5.5h-4q-9 -1 -15.5 -3t-9.5 -8q-16 -24 -43.5 -76t-48.5 -101q-6 -13 -12 -27q-23 -49 -43 -89.5t-55 -103.5q-9 -17 -28 -49q-20 -35 -20 -43q0 -7 8 -15q16 -17 35 -17q15 0 29 11l42 27q43 29 59 39
t30 17q11 5 25 30q11 20 17 20q5 0 17.5 7t28 18.5t27.5 22.5t18 20q4 7 17 11q10 2 13 6q9 11 25.5 25t36.5 28q-4 -14 -10 -31.5t-13 -31.5q-5 -9 -10 -24q-4 -13 -8 -22l-3 -7q-16 -33 -22 -47t-14.5 -34.5t-13.5 -39t-5 -29.5q2 -5 11 -5q11 0 27.5 5t27.5 11
q11 5 21.5 14t27.5 29q-16 9 -16 21q0 10 16 53q8 19 13 34q4 13 19 31q17 21 34.5 50.5t44.5 88.5q11 24 27 55q14 28 14 33q0 6 -10 7l-15 3q-19 3 -26 3q-9 0 -15 -5q-46 -37 -137 -114q-82 -70 -120 -100q-20 -16 -33.5 -28t-33.5 -31l-12 -12l-13 -13q-17 -20 -30 -28
t-49 -18q7 30 23 59.5t42 72.5l9 14t29 46q19 30 29 46q5 7 11 11q7 5 11 12q2 3 11 15q20 28 32.5 48.5t18.5 36.5z" />
    <glyph glyph-name="v" unicode="v" horiz-adv-x="377" 
d="M297 246l-23 -23q-58 -57 -92.5 -85t-85.5 -53q6 43 24.5 85.5t52.5 103.5q50 91 63 135q11 34 11 49q0 16 -16 21q-1 0 -4 1h-3q-7 0 -13 -7q-4 -4 -6 -4l-1 1h-1q-12 0 -35.5 -22t-27.5 -50q-5 -41 -20.5 -78t-41.5 -84q-9 -18 -20 -46q-12 -31 -22 -46
q-17 -26 -24.5 -52t-7.5 -49t7 -38q5 -9 15 -12t28 -3q41 0 54 13q3 2 13 12q30 31 64 55q35 31 75 71t72 75q9 11 39 45q26 29 41.5 46.5t24.5 32.5l10 14q24 32 36 53.5t12 42.5q0 15 -7 27q-11 16 -24 16q-10 0 -25 -5q-14 -4 -33 -17q-13 -9 -19 -11q-12 -5 -22 -27
t-16 -50q5 -1 6 -1q14 -1 18.5 -3.5t4.5 -8.5q0 -2 -1 -3v-4q0 -16 -23.5 -50t-56.5 -67z" />
    <glyph glyph-name="w" unicode="w" horiz-adv-x="645" 
d="M-2 8q0 -14 3 -17t15 -4q1 0 6 -1h5q8 0 12.5 3t9.5 8q4 6 7.5 8.5t11.5 2.5q6 0 18 12q11 12 22 20t28 15q32 13 72 55q7 6 10.5 8t8.5 5q11 5 28.5 17.5t60.5 50.5q2 2 6 5q3 3 4 3q2 0 2 -4q0 -7 -6 -38q-5 -33 -6 -38q-9 -54 -9 -68q0 -22 16 -34q17 -12 27 -12
t36 11q28 11 45 19.5t37 24t44.5 43t56.5 72.5q7 9 22 28q30 38 50 67.5t44 78.5q33 78 33 129q-1 12 -10.5 19t-18.5 7q-34 0 -50 -2.5t-30 -12.5q-7 -4 -17 -13t-20.5 -21.5t-18 -23.5t-10.5 -18q-4 -7 -4 -21q0 -24 10 -24q5 0 10 7q12 11 27 27q14 15 20 19t18 6h4l2 1
q12 0 12 -10q0 -9 -13 -42l-5 -13q-6 -12 -16 -35q-37 -79 -70.5 -132.5t-85.5 -90.5q-16 -11 -27 -11q-8 0 -12 6t-9 17q-1 4 -2 6q-2 7 -2 13q0 7 3 18t10.5 29.5t21.5 51.5t36 82q5 11 5 19q0 11 -9 17.5t-22 7.5h-3q-1 1 -3 1q-13 0 -44 -23l-12 -8q-26 -21 -40 -55
q-27 -24 -83 -67q-47 -37 -60 -50q-14 -12 -24 -18t-23 -14q-14 -7 -24.5 -14t-24.5 -20q-11 -6 -13 -6q-1 0 -2 1q0 3 10 17.5t34 48.5q8 11 11 15q19 28 30.5 47.5t21 38.5t17.5 38.5t22 55.5l8 19q18 47 24.5 65t6.5 27t-10 14q-7 4 -15 4q-10 0 -20 -7q-6 -3 -16 -7
q-15 -5 -22.5 -11t-7.5 -19q0 -48 -23 -95.5t-69 -118.5q-45 -70 -68.5 -117t-24.5 -95z" />
    <glyph glyph-name="x" unicode="x" horiz-adv-x="488" 
d="M346 68q-42 32 -59 69.5t-19 80.5q0 6 13 17q16 13 25 21q35 35 72.5 66t65.5 48q19 12 27.5 22.5t12.5 26.5q12 33 12 41q0 5 -5 5h-2q-3 -1 -5 -1q-28 -5 -49 -17.5t-45 -31.5q-5 -3 -7 -5q-11 -11 -24 -30q-10 -15 -21.5 -28t-34.5 -30q-8 -7 -11 -10q-13 -12 -15 -12
t-2 4q0 3 2 13q1 8 3 22q9 66 18 112q8 33 8 43q0 15 -13 18q-2 0 -7 1h-7q-17 0 -30 -6.5t-14 -17.5q-1 -10 -14 -29q-10 -14 -15.5 -26t-6.5 -28q0 -26 -3.5 -79.5t-8.5 -89.5q-1 -10 -5.5 -16t-11.5 -12q-6 -4 -8 -7q-26 -22 -70 -64q-45 -42 -64 -57q-25 -19 -25 -36
q0 -12 18 -12q24 0 53 19t55 47q9 12 21 25q8 7 13 13q13 16 16 16q2 0 2 -9q0 -15 3 -23q3 -7 5 -11q10 -22 16.5 -35t15.5 -23.5t22.5 -20.5t34.5 -21q25 -14 41 -19.5t33 -5.5q11 0 26 2q32 8 48 18t23 24q-1 1 -2 3q-3 6 -8.5 10t-22.5 7q-57 6 -70 19z" />
    <glyph glyph-name="y" unicode="y" horiz-adv-x="534" 
d="M436 302q-5 -13 -20 -27t-45 -38t-44 -36q-24 -14 -48.5 -33t-36.5 -32q-5 -5 -11 -10q-14 -14 -26 -22t-30 -13q-32 -8 -44 -8q-8 0 -8 4q0 3 2 7q6 19 23 47.5t45 59.5q36 43 61.5 86t52.5 97q15 29 21 40q25 42 25 57q0 9 -10 10q-18 0 -39.5 -5.5t-36.5 -17.5
q-9 -6 -21 -31t-33 -76q-2 -4 -14 -32q-8 -19 -32 -50t-30 -48q-4 -12 -9 -19t-14 -16q-12 -11 -21 -23t-18 -35q-23 -54 -49 -107q-13 -25 -13 -30q0 -4 4 -6q24 -14 40 -14q9 0 16 4q12 8 47 21q30 12 49 21.5t31 22.5q7 8 19 18.5t27.5 23t28.5 22t20 13.5q9 8 23 13
q11 4 18.5 9t16.5 18q17 28 50 46q8 7 11 7q2 0 2 -4t-4 -20t-5 -25q-3 -22 -6.5 -40.5t-8.5 -34.5t-12.5 -39t-24.5 -69l-11 -30q-3 -12 -17 -36q-13 -21 -22.5 -40t-20.5 -47q-37 -95 -60 -151t-37.5 -86t-26.5 -47.5t-33 -42.5q-39 -51 -53.5 -65t-31.5 -14h-6q-5 1 -7 1
q-46 2 -94 38.5t-64 91.5q-5 25 -5 53q0 25 3.5 47t8.5 37q2 4 8 13q8 11 8 13t-3 2t-8 -2q-18 -6 -25 -14t-21 -36q-1 -1 -8 -15q-17 -24 -26.5 -47.5t-9.5 -52.5q1 -27 7 -45t16 -38q12 -21 12 -32q0 -7 15 -21t38 -29t45 -25t37 -11q10 0 29 -2q22 -2 31 -2
q13 1 34.5 13.5t43.5 32.5q42 42 66 67.5t39 45.5t25.5 37.5t27.5 49.5q34 62 57 116q10 23 18.5 44t22.5 59q24 63 34 88q16 38 22.5 60.5t9.5 43.5q3 15 6.5 23t14.5 19q8 9 14 24t16 46q10 32 18.5 52.5t18.5 33.5q9 11 17.5 32t15.5 46t11 49.5t4 40.5q0 24 -9 24h-2
q-1 -1 -2 -1q-37 -18 -67 -42.5t-43 -54.5z" />
    <glyph glyph-name="z" unicode="z" horiz-adv-x="402" 
d="M-325 -243l22 22q84 81 107 96q24 22 36 30.5t27 13.5q26 8 43 51q32 29 32 40q0 3 -2 3q-3 0 -12 -7q-11 -7 -19.5 -13t-16.5 -12l-9 -7q-116 -75 -189.5 -142t-118.5 -122q-13 -22 -13 -51q0 -35 18 -52q27 -25 65.5 -34.5t98.5 -9.5q34 0 99 3q117 5 217.5 37
t172.5 76.5t111 87t39 64.5q-5 70 -22 132t-47 91q-40 39 -81 69t-81 42q-2 0 -2 2q0 5 21.5 20t55.5 31q36 20 57 35t48 40q30 30 49.5 55.5t19.5 48.5q0 17 -13.5 29t-43.5 19q-25 5 -51 5q-33 0 -89 -13q-32 -7 -46 -9q-32 -6 -54.5 -24t-41.5 -43q-4 -4 -6.5 -15
t-2.5 -21q0 -19 6 -19h1q1 1 2 1l5 4q40 35 55 46q4 3 20.5 6.5t41 6.5t45 5t34.5 2q21 -1 31 -7.5t10 -16.5q0 -11 -11 -24q-27 -32 -57 -52.5t-76 -45.5q-44 -23 -71.5 -42t-50.5 -48q-6 -11 -6 -16q0 -6 9 -12t32 -14q34 -11 76 -39.5t80 -68t62.5 -82.5t25.5 -83v-11
q1 -6 1 -9q0 -14 -7 -22l-6 -5q-35 -28 -68 -50.5t-85.5 -47.5t-124.5 -44.5t-159 -25.5q-87 2 -148 15t-76 38q-9 16 -9 30q0 15 9.5 29t30.5 34z" />
    <glyph glyph-name="braceleft" unicode="{" horiz-adv-x="215" 
d="M129 63q-31 0 -53 23t-22 55q0 33 22 55.5t53 22.5q32 0 54.5 -22.5t22.5 -55.5q0 -32 -22.5 -55t-54.5 -23z" />
    <glyph glyph-name="bar" unicode="|" horiz-adv-x="548" 
d="M277 160q13 175 42.5 335.5t80.5 339.5q1 4 1.5 9.5t0.5 18.5q0 4 1 9v16q-13 17 -37 36q-14 12 -16 17q-5 4 -14 4q-12 0 -22 -6.5t-11 -17.5q0 -12 3 -31q2 -18 2 -29q0 -15 -3 -34.5t-10 -48.5q-18 -104 -45 -249q-22 -123 -29.5 -168t-7.5 -70q-2 -49 -4 -159
q-3 -123 -5.5 -200.5t-7.5 -118.5q14 -14 23 -14q6 0 22 10l1 1q8 4 19 17t22 30.5t18 35t7 29.5q0 2 -1 4v4q-1 2 -4 6q-12 22 -21 22q-7 0 -22 -8q7 72 15 180z" />
    <glyph glyph-name="braceright" unicode="}" horiz-adv-x="215" 
d="M129 63q-31 0 -53 23t-22 55q0 33 22 55.5t53 22.5q32 0 54.5 -22.5t22.5 -55.5q0 -32 -22.5 -55t-54.5 -23z" />
    <glyph glyph-name="asciitilde" unicode="~" horiz-adv-x="642" 
d="M257 328q-36 15 -76 15q-32 0 -55 -9q-13 -6 -30.5 -27t-30.5 -42q-2 -2 -2 -4q0 -8 16 -8q21 0 55 17q3 1 7 4q9 6 21 6q16 0 46 -9q62 -27 111.5 -39t132.5 -12q6 0 21 1h24q12 1 26 13q13 12 25 17q4 20 16 49q12 27 17 49q0 2 1 5v3q0 4 -2 4q-5 0 -24 -17
q-20 -18 -37 -30.5t-35 -19.5q-28 -7 -55 -7q-32 0 -71.5 9.5t-100.5 31.5z" />
    <glyph glyph-name="quotesinglbase" unicode="&#x201a;" horiz-adv-x="182" 
d="M68 -40q46 63 75.5 124.5t38.5 119.5q-2 3 -7 11q-11 17 -18 17q-42 -40 -52 -54t-11 -34q-3 -31 -17.5 -69t-41.5 -77q-4 -7 -7 -15.5t-3 -16.5q0 -16 17 -16q4 1 10 1q10 1 16 9z" />
    <glyph glyph-name="quotedblbase" unicode="&#x201e;" horiz-adv-x="374" 
d="M323 117q-26 0 -38 -4.5t-35 -23.5q2 9 4 19q5 18 5 22q0 10 -23 10q-19 0 -35.5 -13.5t-56.5 -59.5q-12 -12 -17 -19.5t-10 -20.5q-5 -16 -14 -33.5t-31 -46.5q-6 -9 -22 -31q-28 -39 -36.5 -52.5t-8.5 -21.5q0 -1 1 -2v-3q2 -10 24 -10q18 0 32 5q5 1 14 21
q16 33 32 51l4 5q27 32 51 64t52 77q-7 -15 -20 -52q-25 -70 -44 -106q5 -4 14 -12q16 -14 22 -14q8 0 21 8.5t14 13.5q3 25 15 51t35 65q21 37 33 62t18 51z" />
    <glyph glyph-name="ellipsis" unicode="&#x2026;" horiz-adv-x="691" 
d="M605 162l-2 3q-8 14 -17 14q-5 0 -14 -2q-16 -4 -22 -8.5t-13 -12.5l-3 -4q-6 -7 -17 -15q-10 -7 -14 -12.5t-4 -15.5q-1 -11 -4 -30q-3 -20 -3 -26q0 -10 7 -14h2q2 -1 3 -1q7 0 20 5t26 12t23.5 15.5t13.5 15.5q0 1 8 17q15 31 15 43q0 9 -5 16zM163 186
q-42 -6 -62 -28.5t-25 -69.5q-1 -6 -1 -20q0 -21 -3 -44q5 1 19 2q12 1 18 3t13 10q3 4 10 10q11 9 16.5 18t5.5 27q0 30 5 49t12 33q3 7 3 9t-4 2l-3 -1h-4zM303 42q4 -2 10 -2q13 0 29.5 7t21.5 12q12 8 12 16q0 1 -1 5t-1 7v40q1 15 1 19q0 21 -3.5 25.5t-17.5 5.5h-2
q-31 0 -46 -9t-17 -26v-11q-1 -8 -1 -12q0 -28 4.5 -51t10.5 -26z" />
    <glyph glyph-name="circumflex" unicode="&#x2c6;" horiz-adv-x="452" 
d="M340 556l6 5q24 23 27 34q4 9 21 18q19 10 25 21q5 12 11.5 18.5t14.5 11.5q7 5 8 7q2 6 5 6q8 0 14 -24q8 -39 13.5 -62t10.5 -33.5t11 -14t15 -3.5q12 3 16.5 11t4.5 29q0 18 -6 83l-1 16q-3 28 -10 44.5t-25 16.5q-18 -2 -37.5 -15t-43.5 -41q-12 -15 -19.5 -22
t-20.5 -14q-11 -3 -44 -46l-9 -12q-16 -21 -27.5 -34.5t-22 -22.5t-19.5 -15t-24 -13q-14 -6 -17 -24q0 -4 8 -4h7q6 1 9 1q22 5 37 16.5t33 32.5q18 20 29 29z" />
    <glyph glyph-name="perthousand" unicode="&#x2030;" horiz-adv-x="761" 
d="M460 48q-10 -18 -10 -26q0 -12 16 -24q23 -16 52 -16q16 0 57 6l3 1q34 5 51.5 16t36.5 31q21 22 36 33q9 9 21.5 26t24 35.5t19 34t7.5 21.5q0 17 -22.5 33t-57.5 16q-22 -1 -44 -8t-48 -17q-33 -14 -44 -14q-17 0 -24 -7.5t-10 -30.5q-6 -24 -38 -71q-17 -25 -26 -39z
M586 53q-16 -2 -21 -2q-7 0 -10 8v0q-2 2 -2 6q0 5 9 23q12 24 17 40q37 6 50.5 14.5t34.5 34.5l1 2q23 -7 23 -23q0 -9 -10 -36q-2 -4 -3 -8q-13 -31 -29.5 -45t-59.5 -14zM287 83l6 19q9 24 12.5 34t8 16t10.5 9.5t19 8.5q3 2 7 4q9 6 14 6q6 0 14 -9q9 -7 9 -14
q0 -5 -9 -18q-1 -2 -5 -7q-1 -2 -9 -12q-16 -22 -28.5 -29t-48.5 -8zM249 2l7 2q42 11 70.5 21t59.5 31q13 17 38 60q21 36 31 49q27 33 27 52q0 16 -23 23q-10 3 -22 3q-4 0 -17 -1q-11 -1 -15 -1q-16 0 -24 8q-18 14 -42 14q-16 0 -23 -6q-13 -11 -20.5 -15t-16.5 -6
q-13 -3 -26 -14t-41 -48q5 0 14 3q5 1 7 1q-6 -11 -14 -34q-8 -17 -14.5 -32.5t-17.5 -36.5q-16 -31 -16 -48q0 -27 45 -27q13 0 33 2zM219 671l-3 -3q-13 -10 -20.5 -15t-19 -10.5t-31 -12t-55.5 -17.5q-24 -4 -36 -4q-14 0 -14 6q0 3 9 14l2 3q16 28 31 42t45 27
q22 16 36 16q12 0 23.5 -10t32.5 -36zM605 650q25 26 25 44q0 11 -8 22t-26 29q-12 16 -28 16q-17 0 -52 -21q-2 -3 -11 -3q-23 -1 -66.5 -5.5t-127.5 -18.5q-4 10 -10 27q-7 22 -16.5 31t-36.5 9q-29 -9 -50 -9q-12 0 -20 2.5t-17 8.5q-8 5 -13 5q-6 0 -16 -8
q-18 -15 -53 -37q-36 -23 -59 -44t-45 -59q-1 -1 -4 -6q-26 -42 -26 -55t21 -27q16 -10 48 -10q31 0 72 9.5t81 24.5q11 4 35 18q26 15 49.5 26t56.5 17q41 5 98 18q50 12 72 12q1 0 7 -1h8l-129 -129l-86 -86t-52 -55.5t-52 -62.5t-56 -77q-40 -57 -70.5 -98t-60.5 -80
q-23 -30 -30.5 -41t-7.5 -16q0 -3 2 -5q5 -11 27 -11q28 0 77 18q29 14 40.5 25t12.5 32v2q-1 7 -6 9.5t-25 3.5q87 108 157.5 190t131 145.5t117 115t122.5 105.5z" />
    <glyph glyph-name="Scaron" unicode="&#x160;" 
d="M350 503q15 0 25.5 -9.5t10.5 -23.5t-10.5 -24t-25.5 -10t-25.5 10t-10.5 24t10.5 23.5t25.5 9.5z" />
    <glyph glyph-name="quoteleft" unicode="&#x2018;" horiz-adv-x="171" 
d="M82 782q1 -57 19.5 -117t47.5 -109q1 -1 5 -9q9 -15 15.5 -24.5t11.5 -9.5l1 1h1q21 23 21 41q0 13 -9 26q-9 14 -16 51q-5 29 -11 44v5q-1 4 -1 7q0 16 8 60q7 42 7 56q0 20 -10 20q-3 0 -7 -2q-17 -7 -43 -15q-23 -7 -31.5 -11.5t-8.5 -13.5z" />
    <glyph glyph-name="quoteright" unicode="&#x2019;" horiz-adv-x="182" 
d="M318 538q46 63 75.5 124.5t38.5 119.5q-2 3 -7 11q-11 17 -18 17q-42 -40 -52 -54t-11 -34q-3 -31 -17.5 -69t-41.5 -77q-4 -7 -7 -15.5t-3 -16.5q0 -16 17 -16q4 1 10 1q10 1 16 9z" />
    <glyph glyph-name="quotedblleft" unicode="&#x201c;" horiz-adv-x="351" 
d="M645 825q-1 7 -15 7q-13 0 -30.5 -6t-32.5 -18q-25 -17 -39.5 -36t-43.5 -69q-6 -10 -8 -14q-2 -2 -7 -8q-17 -20 -22.5 -29t-5.5 -20t10 -11q5 0 15 3q9 2 12 2q5 0 12 -1q4 -1 5 -1q6 0 15 15q6 9 19 20q19 17 31 36q14 22 34 46q12 14 17 21.5t7 18.5q6 17 19 28
q8 8 8 16zM553 849q-28 0 -46 -4.5t-34 -16t-31.5 -30t-46.5 -56.5l-19 -24q-14 -14 -22 -26t-24 -41q-10 -19 -16 -29q8 -4 20 -4q32 0 58 21q30 25 58 62t81 115z" />
    <glyph glyph-name="quotedblright" unicode="&#x201d;" horiz-adv-x="351" 
d="M645 825q-1 7 -15 7q-13 0 -30.5 -6t-32.5 -18q-25 -17 -39.5 -36t-43.5 -69q-6 -10 -8 -14q-2 -2 -7 -8q-17 -20 -22.5 -29t-5.5 -20t10 -11q5 0 15 3q9 2 12 2q5 0 12 -1q4 -1 5 -1q6 0 15 15q6 9 19 20q19 17 31 36q14 22 34 46q12 14 17 21.5t7 18.5q6 17 19 28
q8 8 8 16zM553 849q-28 0 -46 -4.5t-34 -16t-31.5 -30t-46.5 -56.5l-19 -24q-14 -14 -22 -26t-24 -41q-10 -19 -16 -29q8 -4 20 -4q32 0 58 21q30 25 58 62t81 115z" />
    <glyph glyph-name="bullet" unicode="&#x2022;" horiz-adv-x="244" 
d="M136 277q-5 -14 -14 -31q-6 -13 -6 -18q0 -4 2 -9q3 -6 18 -6q14 0 30 6t22 15l6 7q24 31 29.5 42.5t6.5 31.5q0 14 -6 21t-15 7q-13 0 -25 -11q-10 -9 -22 -15q-9 -4 -14 -10.5t-12 -29.5z" />
    <glyph glyph-name="endash" unicode="&#x2013;" horiz-adv-x="642" 
d="M314 322q-58 4 -90 5.5t-50 1.5q-16 0 -24 -1t-17 -5q-12 -5 -26 -22t-25 -35l-1 -1v-2q0 -5 13.5 -8.5t42.5 -3.5q95 2 219 3q50 1 78.5 1.5t43.5 1.5t23 2.5t16 5.5q9 4 13.5 14t4.5 20q0 8 -3 12q-3 5 -11 5q-5 0 -13 -1q-27 -2 -50 -2q-60 0 -144 9z" />
    <glyph glyph-name="emdash" unicode="&#x2014;" horiz-adv-x="639" 
d="M575 303q-4 0 -36 -1q-38 -1 -58 -1q-67 0 -147 3t-163 10q-9 -3 -14 -4q-36 -10 -60.5 -22t-49.5 -37q-5 -4 -5 -7q0 -4 17 -6t67 -2q75 2 182 6q114 4 153 4q40 0 67 -2.5t48 -8.5q10 -3 19 -3q11 0 26 9q11 7 17 9q52 36 52 46t-43 10q-24 0 -72 -3z" />
    <glyph glyph-name="tilde" unicode="&#x2dc;" horiz-adv-x="576" 
d="M350 624q-25 12 -52 12q-22 0 -38 -7q-8 -5 -21 -24.5t-20 -35.5q-2 -2 -2 -4q0 -5 11 -5q14 0 38 14q2 1 5 3q6 5 13 5q11 0 32 -8q43 -24 77 -34t91 -10l14 1h16q8 1 17 11q10 11 18 15q3 18 11 43q9 23 12 42v4l1 2q0 4 -2 4q-3 0 -17 -15q-14 -17 -25.5 -27
t-23.5 -16q-19 -6 -37 -6q-22 0 -49 8.5t-69 27.5z" />
    <glyph glyph-name="trademark" unicode="&#x2122;" horiz-adv-x="1344" 
 />
    <glyph glyph-name="guilsinglright" unicode="&#x203a;" 
d="M350 503q15 0 25.5 -9.5t10.5 -23.5t-10.5 -24t-25.5 -10t-25.5 10t-10.5 24t10.5 23.5t25.5 9.5z" />
    <glyph glyph-name="oe" unicode="&#x153;" horiz-adv-x="631" 
d="M426 362q9 30 12 51.5t3 40.5q0 21 -6 27t-30 6q-25 -1 -51.5 -10t-51.5 -24t-45.5 -33t-33.5 -35q-2 -3 -7 -10q-23 -32 -40 -53t-25 -24q-1 3 -6 7q-3 2 -5 4q-6 -10 -19 -29q-51 -75 -76 -125.5t-25 -100.5q0 -16 3 -31q4 -13 28 -26.5t41 -13.5q13 1 40 12.5t47 27.5
q22 17 46 38t56 51q-20 -40 -20 -73q0 -21 8 -45q2 -6 22 -6q8 0 20.5 1t21.5 2q3 1 4 1q27 4 43 7.5t29 7.5q10 3 15 3q21 0 36 6.5t39 21.5q26 16 43 25q18 19 45 43q22 19 22 22q0 2 -3 2q-5 0 -16 -3q-10 -1 -19 -4t-26 -12q-46 -23 -85 -33.5t-67 -10.5q-22 0 -34 5
q-2 1 -5 2q-7 2 -9.5 4.5t-2.5 9.5q0 11 8.5 38.5t28.5 79.5q38 11 61 19t41.5 17t36.5 23t39 35q19 18 23.5 27.5t5.5 18.5q0 6 2 10t11 10q30 21 44 59q0 1 1 5v3q0 9 -5.5 14t-16.5 10q-8 4 -10 6q-7 6 -15 6q-9 0 -13 -7q-6 -8 -25 -10q-15 -2 -21 -6q-10 -6 -21 -12
q-30 -18 -50.5 -32.5t-40.5 -39.5zM494 306q-47 -16 -62 -16q-6 0 -6 3q0 5 10.5 15t33.5 30q31 25 42 36q16 15 30 15q15 0 15 -22q-2 -26 -19 -38.5t-44 -22.5zM92 77v8q-1 6 -1 7q0 33 16 65t49 79l9 13h3h4q18 0 32.5 13t31.5 40q44 72 77 84q8 2 16 2q15 0 24.5 -7
t9.5 -15q-2 -32 -7.5 -55t-19.5 -46q-25 -47 -54 -82t-63 -67q-35 -30 -53 -40.5t-39 -11.5q-2 0 -6 -1q-7 -1 -10 -1q-16 0 -19 15z" />
    <glyph glyph-name="Ydieresis" unicode="&#x178;" horiz-adv-x="646" 
 />
    <glyph glyph-name="cent" unicode="&#xa2;" horiz-adv-x="329" 
d="M91 55q-26 10 -26 38q0 15 8 35l64 118l32 40q28 37 49 63t40.5 49.5t35.5 39.5t23 19l9 3q9 4 15 4q14 0 22 -26q-22 -26 -67 -80q-56 -68 -77.5 -94.5t-29.5 -41.5l-28 -48q-45 -77 -70 -119zM36 -34q-10 -18 -21 -34.5t-24 -34.5v-1q-1 0 -1 -1q2 -1 5 -1h6q7 1 12 1
q14 11 43 25q15 6 15 9t-19 6q3 18 19 35q29 5 63.5 16t73 30t76 47t68.5 64q28 31 28 40q0 3 -4 3q-5 0 -14 -4.5t-16 -10.5q-25 -23 -49.5 -37.5t-75.5 -39.5l-2 -1q-53 -24 -94 -26q2 3 3 5q34 49 46 68q46 69 95 133.5t102 126.5q0 -5 1 -16v-18q0 -26 -3 -50
q22 4 35.5 23.5t28.5 54.5q7 17 10 23q7 13 7 31q0 15 -5 33q19 20 59 60l20 20q4 4 10 14q7 14 13 22q-3 16 -12 39q-5 13 -5 18q-5 9 -17 9q-15 0 -15 -22q-6 -9 -10 -21q-7 -16 -18 -32.5t-42 -48.5q-4 18 -10.5 24t-17.5 9q-2 0 -6 1h-4q-8 0 -19 -6l-8 -4
q-10 -4 -24 -13t-35 -24l-12 -8q-16 -12 -38 -34.5t-44 -47.5t-40.5 -48.5t-27.5 -36.5q-11 -18 -42 -67q-58 -90 -84 -141.5t-26 -96.5q0 -16 4 -31q6 -19 15 -26t27 -7z" />
    <glyph glyph-name="sterling" unicode="&#xa3;" 
d="M350 503q15 0 25.5 -9.5t10.5 -23.5t-10.5 -24t-25.5 -10t-25.5 10t-10.5 24t10.5 23.5t25.5 9.5z" />
    <glyph glyph-name="currency" unicode="&#xa4;" horiz-adv-x="372" 
d="M176 322q-18 -21 -25 -24q-1 3 -6 7q-3 2 -5 4q-9 -14 -19 -30q-41 -61 -63.5 -102.5t-31.5 -86.5q-11 -10 -27 -21q-10 -6 -13.5 -11t-4.5 -15v-5q1 -4 1 -6q0 -7 -1 -23q-1 -14 -1 -16q0 -7 2 -7q9 6 19 11q9 5 14 8.5t11 10.5q1 -8 25.5 -20.5t40.5 -12.5
q13 1 40 12.5t47 27.5q68 56 125 117q3 -12 16 -27t25 -15q4 2 8.5 13.5t10.5 29.5q4 14 6 19q-7 4 -9.5 7t-4.5 9q-4 9 -9 17q44 57 63 110q4 12 15 47q3 9 3 10q9 10 25 14q8 2 8 6q1 23 11 59q4 16 5 22q0 7 -6 7q-5 0 -13.5 -4.5t-16.5 -9.5q0 21 -6 27t-30 6
q-25 -1 -51.5 -10t-51.5 -24t-45.5 -33t-34.5 -35q-17 21 -24.5 28.5t-12.5 7.5t-14 -15q-7 -12 -13 -20q-14 -4 -14 -10q0 -5 12 -21q13 -19 20 -33zM92 77v8q-1 6 -1 7q0 33 16 65t49 79l9 13h3h4q18 0 32.5 13t31.5 40q44 72 77 84q8 2 16 2q15 0 24.5 -7t9.5 -15
q-2 -32 -7.5 -55t-19.5 -46q-25 -47 -54 -82t-63 -67q-35 -30 -53 -40.5t-39 -11.5q-2 0 -6 -1q-7 -1 -10 -1q-16 0 -19 15z" />
    <glyph glyph-name="section" unicode="&#xa7;" horiz-adv-x="401" 
d="M131 -6q-22 -29 -34 -38t-36 -9q-4 0 -12 1q-12 1 -18 1q-35 2 -47.5 8.5t-27.5 28.5q-22 25 -35 25q-5 0 -9 -4q-8 -6 -22 -10q-12 -3 -18 -9.5t-9 -29.5q0 -53 74 -71q7 -4 26.5 -6t42.5 -2t42.5 2t26.5 6q17 9 41.5 28t47.5 40t38 38t16 24q9 60 9 114q0 60 -11 119
q7 -5 20 -5q16 0 37 7.5t41 20t34 28t17 32.5q2 7 10 18q7 10 11 19t4 25q0 20 -0.5 44.5t-2.5 80.5q-3 94 -3 110q0 6 1 14v9q5 56 24 113t44 84q5 7 14 7l5 -1h8q21 -1 27.5 -8.5t8.5 -21.5q4 -16 10 -22q15 -15 15 -31q0 -5 -2 -12q-1 -6 -1 -8q0 -5 4 -8q11 -10 23 -10
q10 0 18 7.5t10 19.5q3 18 9 48q8 36 8 48q0 15 -6.5 25.5t-22.5 22.5q-32 18 -76 18q-23 0 -68 -6l-6 -1q-10 -2 -24 -14q-63 -58 -80.5 -116.5t-21.5 -150.5l-2 -30q-46 -8 -82.5 -28t-61.5 -44t-39 -46t-17 -35q-6 -29 -6 -61q0 -34 6 -70t18 -88q23 -104 23 -156
q0 -45 -13 -84zM324 465q3 -16 3 -32q0 -67 -43 -116q-21 -10 -44 -10q-14 0 -21 5l-2 2q-13 12 -17.5 17.5t-4.5 10.5t7 20l3 6q14 28 24.5 39.5t39.5 29.5l7 5q34 30 42 30q5 0 6 -7zM231 529q9 0 20.5 -2.5t13.5 -11.5v-2l1 -3q0 -14 -23 -45q-1 -1 -2 -3
q-39 -30 -46 -30q-5 0 -5 12q1 39 41 85z" />
    <glyph glyph-name="dieresis" unicode="&#xa8;" 
d="M350 503q15 0 25.5 -9.5t10.5 -23.5t-10.5 -24t-25.5 -10t-25.5 10t-10.5 24t10.5 23.5t25.5 9.5z" />
    <glyph glyph-name="copyright" unicode="&#xa9;" horiz-adv-x="1665" 
 />
    <glyph glyph-name="ordfeminine" unicode="&#xaa;" 
d="M350 503q15 0 25.5 -9.5t10.5 -23.5t-10.5 -24t-25.5 -10t-25.5 10t-10.5 24t10.5 23.5t25.5 9.5z" />
    <glyph glyph-name="guillemotleft" unicode="&#xab;" horiz-adv-x="485" 
d="M101 253q25 17 39.5 24.5t29.5 12.5t23 10q21 16 45 29t66 31q65 47 65 61q0 4 -5 8h-1q-2 1 -3 1q-21 0 -103 -42q-13 -6 -22 -18q-10 -13 -25 -20q-43 -24 -74.5 -41t-62.5 -31q-40 -20 -51.5 -29.5t-16.5 -30.5q0 -2 -1 -4v-4q0 -15 35.5 -23t137.5 -9q29 -1 44 -3.5
t26 -6.5q10 -4 19 -4q14 1 31.5 12t17.5 25q0 4 -2 8q0 3 -8 9q-4 3 -4 4q1 1 4 1q7 0 27 -3q46 -13 74 -13t38.5 11.5t10.5 31.5q0 7 -51 16t-130 9q-5 0 -17 -1h-18q16 14 25.5 19.5t21.5 9.5q16 7 26 15q5 5 24 12q20 6 28 13q14 5 34 17q18 11 28 13q7 1 17 8q12 8 23 8
q12 0 22 8q12 9 27 15q3 1 7 2t5.5 3.5t2.5 11.5q0 1 1 4v3q0 14 -13 14q-12 0 -34 -12q-53 -25 -91.5 -44t-71 -36.5t-58 -32.5t-57.5 -34q-39 -21 -39 -32q0 -10 26 -19q-26 6 -41 8t-34 3q-14 2 -17 2z" />
    <glyph glyph-name="logicalnot" unicode="&#xac;" horiz-adv-x="336" 
d="M337 300q-49 -8 -84.5 -11t-79.5 -4q-43 -2 -56 -5q-27 -7 -41 -19t-30 -35q-6 -8 -6 -13q0 -9 21 -9q22 0 79 10l8 2q48 9 85 14t75 5q8 0 10.5 -13t2.5 -53q2 -14 6.5 -19.5t15.5 -10.5q15 -7 25 -16q-4 58 -6 122q-1 38 -2.5 47t-10.5 9h-5q-4 -1 -7 -1z" />
    <glyph glyph-name="minus" unicode="&#xad;" horiz-adv-x="642" 
d="M314 322q-58 4 -90 5.5t-50 1.5q-16 0 -24 -1t-17 -5q-12 -5 -26 -22t-25 -35l-1 -1v-2q0 -5 13.5 -8.5t42.5 -3.5q95 2 219 3q50 1 78.5 1.5t43.5 1.5t23 2.5t16 5.5q9 4 13.5 14t4.5 20q0 8 -3 12q-3 5 -11 5q-5 0 -13 -1q-27 -2 -50 -2q-60 0 -144 9z" />
    <glyph glyph-name="minus" unicode="&#x2212;" horiz-adv-x="642" 
d="M314 322q-58 4 -90 5.5t-50 1.5q-16 0 -24 -1t-17 -5q-12 -5 -26 -22t-25 -35l-1 -1v-2q0 -5 13.5 -8.5t42.5 -3.5q95 2 219 3q50 1 78.5 1.5t43.5 1.5t23 2.5t16 5.5q9 4 13.5 14t4.5 20q0 8 -3 12q-3 5 -11 5q-5 0 -13 -1q-27 -2 -50 -2q-60 0 -144 9z" />
    <glyph glyph-name="registered" unicode="&#xae;" horiz-adv-x="615" 
 />
    <glyph glyph-name="macron" unicode="&#xaf;" 
d="M350 503q15 0 25.5 -9.5t10.5 -23.5t-10.5 -24t-25.5 -10t-25.5 10t-10.5 24t10.5 23.5t25.5 9.5z" />
    <glyph glyph-name="degree" unicode="&#xb0;" horiz-adv-x="425" 
d="M382 646q-20 -2 -26 -2q-9 0 -12 7l-1 1q-2 3 -2 6q0 6 11 27q16 27 22 44q26 3 41 6.5t25 9t17 13t22 25.5l2 2q28 -8 28 -26q0 -10 -13 -41q-1 -4 -3 -8q-15 -33 -36 -48.5t-75 -15.5zM223 640q-13 -20 -13 -29q0 -12 20 -26q30 -16 67 -16q22 0 75 7q44 6 66 18t47 35
t42 35q12 10 27.5 28t30 38.5t24 37.5t10.5 23q0 18 -28 35.5t-73 17.5q-28 -1 -55 -8t-62 -19q-41 -15 -54 -15q-21 0 -30 -8t-14 -33q-5 -17 -15.5 -33.5t-32.5 -45.5q-20 -26 -32 -42z" />
    <glyph glyph-name="plusminus" unicode="&#xb1;" horiz-adv-x="420" 
d="M164 187q-58 4 -90 5.5t-50 1.5q-16 0 -24.5 -1t-16.5 -5q-12 -5 -26 -22t-25 -35l-1 -1v-2q0 -5 13.5 -8.5t42.5 -3.5q95 2 219 3q50 1 78.5 1.5t43.5 1.5t23 2.5t16 5.5q9 4 13.5 14t4.5 20q0 8 -3 12q-3 5 -11 5q-5 0 -13 -1q-27 -2 -50 -2q-60 0 -144 9zM1 394
q-8 -9 -8 -18q0 -7 8.5 -12t25.5 -5q5 0 17 1q43 3 56 3q19 0 19 -6q0 -2 -2 -5q-21 -58 -28 -80.5t-7 -30.5q0 -7 4 -10q2 -9 18 -9q10 0 51 5h5q1 -1 3 -1q8 0 11 9q2 6 4 8q17 31 27.5 53t18.5 42q6 15 9 19t11 4q28 4 68 6q34 2 54.5 5.5t43.5 14.5q4 2 12 4q8 1 11 4
t3 13q0 13 2 19t9 12q-46 0 -78.5 -1.5t-63.5 -3.5q-18 -1 -24 -1q-10 0 -10 3q0 2 3 6l26 43q34 59 42.5 75t8.5 23q0 1 -1 3v3q-8 10 -16 10t-24 -5q-8 3 -15 3q-23 0 -46 -26.5t-68 -94.5l-28 -42q-23 5 -42 5q-60 0 -110 -45z" />
    <glyph glyph-name="twosuperior" unicode="&#xb2;" 
d="M350 503q15 0 25.5 -9.5t10.5 -23.5t-10.5 -24t-25.5 -10t-25.5 10t-10.5 24t10.5 23.5t25.5 9.5z" />
    <glyph glyph-name="threesuperior" unicode="&#xb3;" 
d="M350 503q15 0 25.5 -9.5t10.5 -23.5t-10.5 -24t-25.5 -10t-25.5 10t-10.5 24t10.5 23.5t25.5 9.5z" />
    <glyph glyph-name="acute" unicode="&#xb4;" horiz-adv-x="444" 
d="M692 701q3 5 8 6.5t19 1.5q11 0 13.5 5.5t2.5 17.5q0 13 -7 13q-3 0 -13 -3q-21 -7 -36 -7q-16 0 -38 -11q-21 -10 -36 -10q-12 0 -22.5 -4t-25.5 -11q-17 -9 -32 -15t-36 -11q-53 -13 -91.5 -33t-47.5 -35q-9 -13 -13 -21.5t-4 -14.5q0 -9 20 -9q18 0 30.5 4.5
t32.5 14.5q35 19 65 30q27 8 69 27q33 15 49 18q28 9 52.5 21t40.5 26z" />
    <glyph glyph-name="paragraph" unicode="&#xb6;" horiz-adv-x="533" 
d="M315 734q34 -5 59.5 -34.5t25.5 -54.5q0 -7 -2 -12q-64 -102 -164 -102q-15 0 -30 2q-62 11 -100.5 37.5t-38.5 58.5q0 17 13 34q23 33 83.5 53t120.5 20q18 0 33 -2zM420 687q-8 30 -34.5 51t-73.5 27q-4 0 -13 1h-15q-33 0 -71.5 -6.5t-75 -19t-66 -30t-44.5 -38.5
t-15 -44q0 -40 47.5 -74t128.5 -47q29 -4 52 -4q41 0 73 13t62 42l-202 -575l27 -9l211 605l51 150l-25 9zM413 477l-180 -513l27 -9l211 605l51 150l-25 9z" />
    <glyph glyph-name="periodcentered" unicode="&#xb7;" horiz-adv-x="228" 
d="M139 277q-5 -12 -12 -26q-6 -11 -6 -16q0 -4 2 -8q3 -5 16 -5t27.5 5t19.5 13l8 9q20 25 25 34.5t6 26.5q0 24 -19 24q-12 0 -23 -10q-9 -8 -20 -12q-9 -3 -13 -9t-11 -26z" />
    <glyph glyph-name="periodcentered" unicode="&#x2219;" horiz-adv-x="228" 
d="M139 277q-5 -12 -12 -26q-6 -11 -6 -16q0 -4 2 -8q3 -5 16 -5t27.5 5t19.5 13l8 9q20 25 25 34.5t6 26.5q0 24 -19 24q-12 0 -23 -10q-9 -8 -20 -12q-9 -3 -13 -9t-11 -26z" />
    <glyph glyph-name="cedilla" unicode="&#xb8;" horiz-adv-x="233" 
d="M157 30q-1 4 -6 4q-7 0 -19 -9t-22 -19q-17 -17 -17 -38q0 -9 4 -17q21 -43 29.5 -65.5t8.5 -41.5q0 -28 -24 -64q-7 -10 -12 -24q-5 -12 -11 -16q-7 -5 -12 -10.5t-10 -16.5q-5 -7 -10 -17q-6 -11 -11 -17q13 1 22.5 3.5t19 8.5t23 18t31.5 32l23 23q27 27 31 43
q8 27 10.5 40.5t2.5 25.5q0 16 -4.5 33.5t-17.5 50.5q-10 22 -13.5 30.5t-7.5 21.5z" />
    <glyph glyph-name="onesuperior" unicode="&#xb9;" 
d="M350 503q15 0 25.5 -9.5t10.5 -23.5t-10.5 -24t-25.5 -10t-25.5 10t-10.5 24t10.5 23.5t25.5 9.5z" />
    <glyph glyph-name="guillemotright" unicode="&#xbb;" horiz-adv-x="564" 
d="M443 239q25 16 42 24.5t45 21.5q10 4 18 8q34 20 34 36q0 12 -19 17t-29.5 10t-19.5 11q-10 7 -17 7q-14 0 -25.5 6t-23.5 15q-11 9 -15 9q-10 1 -12.5 3t-3.5 5q0 5 -4 8t-19 5q-11 2 -22 2q-30 0 -51.5 -14.5t-21.5 -31.5q0 -14 15 -23q8 -7 38.5 -15t74.5 -18
q14 -4 25.5 -10.5t23.5 -20.5q-15 -5 -36 -15q-12 -5 -14 -5l-1 1q0 2 10 12q4 4 4 6q0 4 -12 6q-6 1 -9 2q-4 2 -18 4q-33 6 -62 17q-1 8 -5.5 10t-12.5 4q-6 0 -8 1q-15 8 -43 27q-25 17 -47 30.5t-57 30.5q-5 2 -11 2q-10 0 -23 -5t-24 -13q-27 -19 -27 -37q1 -6 16 -12
t46 -15q43 -13 54 -19q7 -4 27 -10q23 -8 46 -18t53 -28q-22 -10 -46.5 -18t-46.5 -9q-24 -7 -52 -18q-21 -9 -36 -12.5t-43 -3.5q-21 -3 -34 -11.5t-24 -35.5h3h5q18 0 81 17q46 14 77 21t63 9q11 0 19.5 1.5t22.5 6.5q19 6 35 10q-60 -37 -80 -52.5t-20 -26.5q1 -4 7 -4
q2 0 11 1q18 3 32 3q2 0 21 14q29 21 58 40t68 37z" />
    <glyph glyph-name="onequarter" unicode="&#xbc;" horiz-adv-x="851" 
d="M662 205q-4 -4 -43 -10q-59 -8 -105 -18q-26 -4 -63 -13q-21 -6 -27 -6l-38 -3q-43 -3 -55 -3q-13 0 -13 3q0 2 8 7q31 22 52 38t50 37q39 30 60 45q7 6 21 13q13 7 26 15t33.5 22t56.5 40t84 63q37 31 49 31q5 0 5 -6q0 -60 -26.5 -118.5t-74.5 -136.5zM616 -70
q3 48 28 98.5t70 110.5q2 2 8 2q9 0 48 -7q43 -7 60 -8q29 0 51.5 14t22.5 32q0 6 -2 11q-4 4 -18 7.5t-34 5.5t-41 3t-33 1h-6q-8 1 -20 1q-10 0 -10 5t7 18q40 56 63.5 110.5t52.5 137.5q10 28 17 49q0 5 -16 15q-14 9 -18 14q-3 10 -27 10q-20 0 -40.5 -9t-36.5 -29
q-9 -11 -35.5 -33t-60 -47t-62 -45t-42.5 -27q-22 -12 -51 -39q-19 -18 -35 -29.5t-41 -23.5q-18 -10 -28 -17t-25 -21q-15 -12 -28 -22t-33 -24q-30 -21 -45.5 -34t-37.5 -35q-7 -7 -7 -11q0 -3 6 -8q5 -5 5 -8t-3 -7t-3 -6q0 -11 30 -11q23 0 58 7q43 8 70.5 13t53 9
t44 6.5t68.5 8.5q5 1 46 6l3 1q19 2 23 2t4 -2t-10 -15q-5 -6 -8 -10l-17 -34q-24 -46 -36 -76t-12 -61q0 -1 1 -8v-8q1 -7 9 -10t19 -3q12 7 31 14q23 9 23 16zM138 870q-3 -4 -5.5 -15t-2.5 -19q0 -12 6 -12q2 0 5 2q17 14 26 19t17 8q2 1 3 1q2 0 7 1h5q9 0 9 -6
q0 -4 -9 -23q-10 -21 -16 -37q-25 -57 -41.5 -89.5t-41.5 -77.5q-20 -38 -32.5 -61t-31.5 -61q-4 -8 -10 -25t-11 -33t-27 -84l-8 -28q-10 -26 -10 -33q0 -4 2 -5q16 -4 29 -4l7 1h6q17 1 28.5 14t13.5 38q7 65 35.5 128.5t83.5 158.5q41 72 65 118t39 95q9 25 16 61
q0 5 -15 13l-4 3q-10 7 -18 7q-6 0 -24 -3q-13 0 -20 -1.5t-18 -5.5q-24 -9 -38 -23q-11 -9 -17 -17q-2 -4 -3 -5zM493 665l-129 -129l-86 -86t-52 -55.5t-52 -62.5t-56 -77q-40 -57 -70.5 -98t-60.5 -80q-23 -30 -30.5 -41t-7.5 -16q0 -3 2 -5q5 -11 27 -11q28 0 77 18
q29 14 40.5 25t12.5 32v2q-1 7 -6 9.5t-25 3.5q87 108 157.5 190t131 145.5t117 115t122.5 105.5q25 26 25 44q0 11 -8 22t-26 29q-12 16 -28 16q-17 0 -52 -21q-25 -17 -25 -37q0 -7 3 -18q2 -8 2 -12q0 -5 -3 -8z" />
    <glyph glyph-name="onehalf" unicode="&#xbd;" horiz-adv-x="823" 
d="M759 415q-17 -53 -64 -97t-126 -100q-26 -19 -41 -30q-32 -23 -52.5 -39t-39.5 -34t-41.5 -42.5t-57.5 -66.5q-7 -7 -7 -15q0 -11 21 -30q9 -7 12 -11q4 -6 18 -8t46 -2t130 3q102 3 187 5q14 0 20 -2t11 -6q4 -4 8 -5.5t12 -1.5q21 1 33.5 12t25.5 34q7 14 7 23
q0 30 -74 30q-42 0 -77.5 -2t-72.5 -6q-55 -5 -83 -5h-15q-10 1 -16 1q-2 0 -32 2q-48 3 -62 4.5t-14 3.5t7 6q1 1 4 3q45 44 69.5 64.5t54.5 38.5q54 35 87 61t64 58q8 8 22 19q19 14 31 27q37 45 52 64.5t24 34t11.5 25t3.5 25.5q0 13 -18 35t-43 39q-9 9 -24 18.5
t-23 10.5h-8l-8 1q-40 0 -78.5 -14t-93.5 -42q-16 -9 -41 -30q-13 -11 -19 -15q-16 -14 -22 -26t-6 -25q0 -2 1 -6v-7q1 -48 37 -48l5 1h5l3 1q17 3 22.5 8.5t5.5 25.5v8q-1 9 -1 13q-3 13 -3 21q0 13 11 19q33 20 62 28.5t57 8.5h11q7 -1 11 -1q2 0 8 -1q14 0 22 -7
q16 -14 28.5 -29t12.5 -28zM138 870q-3 -4 -5.5 -15t-2.5 -19q0 -12 6 -12q2 0 5 2q17 14 26 19t17 8q2 1 3 1q2 0 7 1h5q9 0 9 -6q0 -4 -9 -23q-10 -21 -16 -37q-25 -57 -41.5 -89.5t-41.5 -77.5q-20 -38 -32.5 -61t-31.5 -61q-4 -8 -10 -25t-11 -33t-27 -84l-8 -28
q-10 -26 -10 -33q0 -4 2 -5q12 -4 24 -4l7 1h6q17 1 28.5 14t13.5 38q7 65 35.5 128.5t83.5 158.5q41 72 65 118t39 95q9 25 16 61q0 5 -15 13l-4 3q-10 7 -17 7q-5 0 -20 -3q-13 0 -20 -1.5t-18 -5.5q-24 -9 -38 -23q-11 -9 -17 -17q-2 -4 -3 -5zM493 665l-129 -129
l-86 -86t-52 -55.5t-52 -62.5t-56 -77q-40 -57 -70.5 -98t-60.5 -80q-23 -30 -30.5 -41t-7.5 -16q0 -3 2 -5q5 -11 27 -11q28 0 77 18q29 14 40.5 25t12.5 32v2q-1 7 -6 9.5t-25 3.5q87 108 157.5 190t131 145.5t117 115t122.5 105.5q25 26 25 44q0 11 -8 22t-26 29
q-12 16 -28 16q-17 0 -52 -21q-25 -17 -25 -37q0 -7 3 -18q2 -8 2 -12q0 -5 -3 -8z" />
    <glyph glyph-name="Adieresis" unicode="&#xc4;" horiz-adv-x="870" 
d="M760 725q13 -39 18 -60t5 -39q0 -12 -2 -27q-4 -20 -8 -57q-2 -25 -4 -36q-3 -10 -10 -65q-5 -42 -10 -76t-11 -55q-5 -25 -10 -57q-2 -22 -6 -35q-9 -36 -28 -36q-12 0 -23.5 14t-17.5 33q-2 8 -27 33q-8 9 -18.5 18.5t-23.5 21.5l-1 1q-8 8 -28 21q-26 17 -35 28
q-4 6 -16 13q-11 7 -11 11t6 9q17 20 42 58q26 42 42 56q7 10 17 19q10 7 12 16q1 4 8 12t21 23q28 29 39 43q8 15 29.5 45.5t50.5 67.5zM998 1007q-5 -2 -21 -10q-29 -13 -39 -23q0 -17 -4 -24.5t-23 -25.5q-30 -30 -57 -60q21 -17 30 -17q6 0 18 6l1 1l1 1q29 15 33 15
q1 0 1 -1q0 -2 -5 -11q-3 -5 -13 -28q-10 -25 -17 -39q-4 -8 -4 -13t6 -5q7 0 22 6q1 0 4 -1t4 -1q3 0 7 11q3 10 10.5 19t26.5 29q30 31 57 61q42 42 42 59q0 4 -2 8q-5 6 -11 6q-9 0 -49 -23q-16 -10 -35 -21q-9 -11 -31 -21q-16 -7 -20 -14q4 8 15.5 18.5t31.5 25.5
q24 19 37 31t16 22q8 16 8 21q0 4 -4 4q-3 0 -11 -2q-15 -4 -25 -4zM21 -119q13 4 25.5 11t34.5 20l17 11q16 28 39.5 59.5t49.5 65.5q5 5 9 11q2 3 6 7q9 13 18.5 23.5t28.5 28.5q17 19 30.5 32.5l36.5 36.5q28 27 53.5 53t55.5 60q12 -1 23 -10.5t43 -44.5q26 -17 51 -45
t62 -88q9 -14 30 -33q14 -14 25 -26t22 -32q6 -6 18 -6q30 0 60 30t35 86q4 49 6.5 74.5t4 39.5t4 26t6.5 28q1 3 1 5q4 67 7 90t6 35t6 32.5t8 73.5q1 37 7 56t15 33q7 12 7 19q1 29 2 67q1 34 1 47q0 31 -6 40t-29 18q-17 7 -22 9q-13 5 -19 5q-12 0 -28.5 -15t-65.5 -68
q-10 -11 -22 -24q-9 -14 -20 -29q-14 -17 -24 -34q-9 -18 -34 -47q-26 -31 -45 -57.5t-29 -45.5q-9 -7 -12 -10.5t-9 -11.5q-5 -5 -11 -13l-19 -24q-26 -32 -33 -32q-2 0 -5 2q-34 28 -57.5 41t-43.5 13q-14 0 -27 -6q-14 -8 -31 -18q-31 -18 -31 -23q0 -4 8 -9q0 -7 -1 -20
v-10q0 -10 11 -13t50 -3q10 0 15.5 -3.5t9.5 -9.5q3 -4 5 -6q5 -4 12 -10q10 -8 10 -11v-1l-1 -1q-7 -10 -27.5 -34.5t-54.5 -62.5q-10 -13 -34.5 -38t-53 -53.5t-53.5 -52.5t-28 -27q-8 -4 -24 -28q-9 -14 -14.5 -20.5t-10.5 -6.5q-19 0 -43.5 -35.5t-38.5 -83.5q2 0 6 1h4
q9 0 22 -8z" />
    <glyph glyph-name="Ccedilla" unicode="&#xc7;" horiz-adv-x="680" 
d="M260 -8q0 8 14 13t41 11q17 3 21 5l203 84q14 6 39 25q16 12 20 12q20 2 31.5 20t11.5 28q0 6 -6.5 10t-14.5 4q-5 0 -9 -2l-244 -109q-12 -5 -35 -7q-12 -1 -14 -2q-11 -8 -38 -13t-45 -5q-12 4 -36 4h-20q-8 -1 -14 -1q-2 0 -7 1h-4q-31 9 -40 27q-2 4 -2 11
q0 16 9.5 43.5t16.5 42.5q18 33 74 101q39 47 55 70q6 9 17 22t21.5 25t20.5 22.5t16 15.5q32 30 86 83q66 65 110 104t91 70q5 3 13 3q12 0 26 -6.5t25 -16.5q8 -8 8 -27q0 -24 -9 -47q-2 -8 -2 -18q0 -12 3 -24.5t6 -17.5q6 -9 24 -9q16 0 24 8q24 26 40.5 50t16.5 35
q0 3 -3 5q3 9 5.5 35t2.5 49v12q-1 6 -1 10q-4 23 -24 41.5t-49 19.5q-7 0 -18 -3t-27 -9q-14 -5 -17 -5h-3l-4 1q-12 0 -28.5 -6t-32 -14t-28 -16t-17.5 -11q-78 -57 -152.5 -126t-141 -143t-125 -149t-110.5 -150q-5 -7 -7 -27q-1 -13 -3 -15q-7 -6 -14 -34t-7 -46
q0 -24 15.5 -46t37.5 -27q2 0 10 -2q19 -5 30 -5t23 4q9 3 23 5t25 2q15 0 15 -4q9 -65 9 -88q0 -29 -10 -48t-36 -41q-9 -8 -18 -20q-8 -10 -15 -12q-9 -3 -15.5 -7t-13.5 -13q-7 -5 -16 -14q-8 -9 -14 -13q16 -3 25 -3q14 0 32 7.5t53 27.5q10 6 28 16q19 10 28 16.5
t14 16.5q23 36 30 53t7 45q0 17 -3 48l-2 18q-2 19 -2 20z" />
    <glyph glyph-name="Odieresis" unicode="&#xd6;" horiz-adv-x="542" 
d="M662 913q8 16 19.5 27t33.5 27q27 23 36 37t9 24v5q-1 3 -1 4l1 2v3h-9q-13 -1 -19 -2t-12 -6q-7 -5 -23 -14q-25 -15 -33 -25q0 -16 -4.5 -25t-24.5 -34t-35 -45q-3 -4 -5 -6q-5 -7 -5 -8q0 -3 15 -8q10 -3 17 -6q4 0 12 6q15 11 32 20q4 4 6 4q1 0 1 -2q0 -6 -22 -57
l-1 -2q-12 -21 -12 -31q0 -7 7 -7q3 0 8 2l4 1q3 1 8 2q8 2 14 8t17 28q7 9 18 22l34 42.5t27 35t21 32t8 22.5q0 4 -3 6l-1 1q-4 5 -8 5q-6 0 -23.5 -10t-58.5 -38q-8 -13 -30 -26q-15 -8 -18 -14zM503 333q-4 -10 -21 -34.5t-45 -57.5t-68.5 -69.5t-88.5 -67.5
q-7 -5 -22 -6t-21 -7q-2 -3 -16.5 -5t-31.5 -2q-18 0 -34 2t-24 6q-13 7 -19.5 28.5t-6.5 49.5q0 18 2.5 35t6.5 26q59 128 118 227.5t146 201.5q4 4 7 6q4 4 7 5.5t8 2.5h2q14 -3 21.5 -9t7.5 -24q13 15 31 35q17 18 22.5 26.5t5.5 19.5q0 10 -5 29q13 -17 39 -35
q22 -15 25 -26q16 -52 16 -108q0 -60 -16.5 -119.5t-45.5 -129.5zM458 193q56 48 96 103.5t60 113.5q8 20 10.5 34t3.5 33q0 9 3 34.5t8 59.5q8 64 9 73q0 7 -2.5 24t-6.5 37.5t-8.5 38.5t-7.5 25q-14 32 -36.5 52t-54.5 23q-7 0 -26 -12q-24 -15 -39 -18q-11 -3 -22 -23
q-14 -25 -32 -39q-6 -6 -22 -15q-10 -6 -12 -8h-2l-3 1q-14 0 -26 -13q-110 -135 -189.5 -272.5t-132.5 -279.5q-8 -23 -16 -66t-8 -70q4 -55 94 -58q46 0 75 5.5t56 25.5q40 22 93.5 67t137.5 124z" />
    <glyph glyph-name="multiply" unicode="&#xd7;" horiz-adv-x="326" 
d="M139 362q-5 -12 -12 -26q-6 -11 -6 -16q0 -4 2 -8q3 -5 16 -5t27.5 5t19.5 13l8 9q20 25 25 34.5t6 26.5q0 24 -19 24q-12 0 -23 -10q-9 -8 -20 -12q-9 -3 -13 -9t-11 -26z" />
    <glyph glyph-name="Udieresis" unicode="&#xdc;" horiz-adv-x="671" 
d="M527 524l-104 -134q-25 -26 -69 -75q-69 -75 -114 -119.5t-97 -78.5q-16 -10 -21 -10q-2 0 -2 3q0 7 33 64q71 121 126 230q36 64 56 100.5t32.5 64.5t23.5 59t27 86q15 52 34 102q8 22 8 26q0 5 -9 5h-7l-5 -1q-12 0 -18 2.5t-9 7.5q-3 3 -6 3q-4 0 -14 -5
q-31 -15 -53.5 -44t-22.5 -48v-2v-2q2 -12 2 -23q0 -14 -5 -32q-5 -13 -5 -21q0 -6 2 -13q3 -7 3 -16q0 -30 -32 -82q-18 -30 -37.5 -64t-39.5 -69t-34.5 -62t-23.5 -46q-9 -16 -19 -36l-39 -78q-24 -48 -45.5 -90t-34.5 -66l-3 -5q-6 -7 -6 -11q0 -6 9 -16q4 -18 11 -18
q5 0 21 5q12 4 38 8q22 4 35.5 7.5t24.5 12.5q3 3 13 14q43 49 57.5 65t26 27.5t20.5 18t18 9.5q8 2 27 17t40 34.5t37.5 39t21.5 32.5q4 14 11 23t16 18q13 12 17 20t6 10t6 2q6 0 18.5 9t38.5 42q21 31 60 70t97 81q-24 -56 -86 -164q-63 -109 -94 -181t-31 -147
q0 -32 7 -62q3 -15 19 -24.5t44 -9.5t38.5 13t18.5 40v1q3 8 3 14q0 9 -10 15q-9 5 -9 11q-3 20 -3 42q0 41 10.5 86.5t29 90.5t40.5 85.5t46 77.5q32 47 52.5 80.5t35 59.5t25.5 49t39 85q9 18 9 27q0 7 -4.5 9.5t-15.5 5.5q-9 2 -12 3q-9 2 -18 2q-15 0 -25 -6t-25 -19
l-3 -3q-24 -28 -53 -57.5t-83 -83.5q-34 -34 -55.5 -56t-31.5 -35zM753 937q-31 -7 -65 -37t-62 -67l-89 -144q-2 -2 -2 -4q0 -10 19 -10q15 0 25 9q20 27 50.5 66t59 74t49.5 59t29 30q10 8 10 14q0 5 -6 8t-13 3q-2 0 -3 -1h-2zM501 761q0 -10 17 -10q19 0 39 10
q31 47 59 83t67 74q31 34 31 41q0 6 -13 8q-5 4 -11 4q-9 0 -27 -11q-18 -19 -56 -56q-49 -46 -74 -77t-32 -66z" />
    <glyph glyph-name="Thorn" unicode="&#xde;" horiz-adv-x="300" 
 />
    <glyph glyph-name="germandbls" unicode="&#xdf;" horiz-adv-x="546" 
d="M-212 -480q83 104 147 219.5t151 293.5q61 126 93 188l145 204q10 13 16.5 23.5t11.5 21.5q2 6 14 16q6 5 8 8q5 7 15 18q19 22 23 30q10 21 24 40t30 33q23 25 62 66q28 29 40 42.5t14 17.5l4 8q9 18 20 23q6 2 22 9q30 14 42 15q10 0 14 -3.5t4 -15.5q-7 -41 -15 -71
t-18 -43q-46 -68 -79 -111t-81 -87q-26 -25 -38.5 -40t-27.5 -36q-1 -1 -4 -5q-5 -6 -21 -13t-23 -13q-42 -33 -58 -49q-6 -6 -9.5 -10.5t-6.5 -9.5q-5 -8 -20 -9q-11 -1 -16 -4.5t-6 -16.5q0 -27 25.5 -33.5t74.5 -6.5q46 0 62 -2t28 -9q20 -14 20 -23q0 -4 -4 -11
q-2 -3 -3 -6q-8 -14 -16.5 -26t-20.5 -20q-107 -79 -207 -96q-5 0 -5 7q0 8 6.5 25t15.5 33q-23 -12 -30 -12q-4 0 -9 4h-1q-5 0 -17 -12t-25.5 -30.5t-23 -35.5t-9.5 -27q0 -1 1 -2v-2q4 -10 13 -18t27 -8h5q5 1 7 1q70 11 136 45t117.5 75.5t85.5 78.5t42 53q9 18 9 36
q0 15 -9 26t-30 15q-42 8 -102 15q-40 4 -40 8q0 1 2 2q73 60 129.5 119.5t105.5 128.5q9 12 22 28q7 8 15 18q54 62 83.5 117t30.5 110q0 14 -9 31.5t-20 19.5q-19 3 -27 3q-12 0 -18 -4.5t-18 -19.5l-4 -5q-19 0 -32 -7.5t-44 -34.5l-2 -2q-17 -14 -37 -36t-48 -55
q-26 -32 -38 -45q-28 -30 -42.5 -45t-22.5 -25t-14 -19.5t-17 -28.5q-4 -6 -19 -21q-13 -12 -18 -18q-31 -34 -53.5 -61t-30.5 -45q-12 -23 -26.5 -41t-39.5 -45q-15 -16 -17 -18h-1v-1q-1 0 -1 3q0 1 1 8q1 10 1 16q0 18 -9 18h-2q-2 -1 -3 -1q-8 -4 -11 -13q-1 -5 -3 -6
q-16 -10 -35 -16q-13 -4 -19 -8q-2 -1 -3.5 -8.5l-4.5 -22.5q-2 -13 -3 -17q-10 -39 -22.5 -82t-25 -81t-24 -68t-19.5 -47q-16 -39 -33.5 -71t-55.5 -96q-24 -42 -38 -66q-19 -32 -30.5 -46.5t-23.5 -23.5q-4 -3 -4 -10q0 -3 2 -12q3 -10 3 -15q0 -7 -5 -12q-6 -7 -14 -7
q-4 0 -7 -2.5t-7 -11.5q-3 -6 -9 -19q-15 -36 -25 -52q15 0 31 -10q6 -3 7 -3t1 1h1z" />
    <glyph glyph-name="agrave" unicode="&#xe0;" horiz-adv-x="512" 
d="M329 615q24 -45 40 -57t45 -12q16 2 23 10.5t14 43.5v2l1 2q0 10 -10 30t-28 43q-46 49 -46 88q0 26 -4.5 35t-13.5 9q-5 0 -15 -2q-4 -1 -7 -2q-26 -5 -34 -11.5t-13 -18.5q-3 -9 -7 -14t-4 -9q0 -5 6 -17l2 -4q0 -2 1 -5q4 -22 6.5 -32.5t7 -20.5t12.5 -23t24 -35z
M98 101q41 69 89.5 132t104.5 115q63 61 87 61h3q2 -1 3 -1q21 -11 21 -27q0 -7 -4 -17q-1 -4 -4 -12q-17 -52 -33 -86t-40 -53l-12 -9q-11 -8 -15 -16q-5 -10 -22 -12q-9 -1 -12 -5t-4 -12q-3 -10 -8 -13q-8 -3 -27 -16.5t-49 -34.5q-22 -16 -35 -24.5t-17 -10.5
q-9 -5 -18 -5q-3 0 -8 1q-6 1 -10 1q-1 1 -5 1q-6 1 -6 4q0 4 5 13.5t16 25.5zM356 457q-25 -18 -54 -43.5t-57 -53.5t-48.5 -50.5t-31.5 -37.5l-144 -204q-13 -15 -16 -25t-4 -29v-2q0 -11 6.5 -20t18.5 -9h4q2 1 4 1q15 7 32 13t27 6q8 0 24 9t29 20q19 18 38 31.5
t27 14.5q9 0 14 8q3 4 5 5q22 26 41 41.5t30 15.5q6 0 19 5t27.5 13t26.5 17.5t15 18.5v-7l1 -4q0 -12 -6 -24l-1 -1q-4 -8 -19 -49q-10 -28 -19 -50.5t-14 -30.5q-4 -9 -4 -16q0 -13 16 -17q13 -3 29 -3t17 4q3 7 21 13q3 1 4 1q11 5 26 20q14 14 25 21q10 21 10 32
q0 8 -6 8l-2 -1h-2q-7 -1 -30 -15q-17 -10 -25 -14q2 26 15.5 51.5t38.5 63.5q42 62 52 94q5 14 8 53q2 34 5 47q-14 -6 -22 -6t-10.5 4.5t-3.5 12.5v3q2 13 2 27q0 52 -22 66q-8 7 -23 7q-20 0 -46 -10.5t-48 -24.5z" />
    <glyph glyph-name="adieresis" unicode="&#xe4;" horiz-adv-x="549" 
d="M347 22q2 -5 5 -14q4 -13 10 -17t28 -4q16 0 58 2q31 1 42 7t26 29q6 8 6 12q0 8 -23 8l-9 -1h-12q-13 1 -20.5 4.5t-17.5 12.5q-10 11 -13 17t-3 9v3q1 2 1 3q0 2 -3 6q-7 9 -7 27v7q1 5 1 8q12 67 36 133.5t63 153.5q-18 3 -23 17q-5 7 -8 7q-4 0 -14 -10
q-13 -12 -24 -21q-5 9 -5 16q0 4 2 14l1 4q2 7 2 14q0 23 -16 38.5t-46 15.5q-11 -1 -20.5 -4t-25.5 -13t-43 -32t-67 -59q-10 -12 -34 -32q-17 -14 -21 -20q-11 -16 -32 -45q-65 -90 -98.5 -150.5t-37.5 -119.5q1 -12 11.5 -25t25.5 -21q7 -3 15 -3q2 0 10 1q6 1 10 1
q19 0 29.5 5t20.5 14q14 11 24 12t26 21q17 22 31 31q15 9 30.5 22t24.5 25l13 18q28 39 47 61t43 41q-1 -30 -13 -86q-13 -61 -13 -91q0 -28 7 -52zM68 72q11 58 42.5 121.5t77.5 130.5l48 48q50 51 76 74q38 29 63 29q21 0 21 -20v-4q-1 -3 -1 -5q-7 -31 -30 -72t-49 -77
q-23 -30 -51 -43q-7 -5 -19 -9q-10 -3 -10 -6q0 -2 2 -5q-3 -4 -3 -8q0 -10 12 -15q4 -2 9 -2q3 0 8 1q2 1 3 1t2 -1q0 -2 -5 -9q-16 -28 -35 -46t-49 -41q-35 -26 -51 -42q-13 -13 -34 -13q-11 0 -19 4t-8 9zM452 733q2 10 32 42q26 28 37 43q7 9 22 24q21 23 24 37l1 3
q1 11 1 13q0 5 -4 5q-2 0 -10 -2q-16 -3 -28 -5q-8 -2 -21 -12q-11 -8 -17 -12q-18 -13 -24 -21.5t-8 -19.5q-3 -11 -7.5 -20t-17.5 -23q-60 -78 -60 -93q0 -5 5 -8q14 -11 23 -11q8 0 28 12q3 2 13 8q11 8 14 8q1 0 1 -3t-5 -18q-4 -11 -10 -24q-12 -31 -17.5 -47t-5.5 -25
q0 -10 8 -10l2 1h3q5 2 13 2q9 0 14.5 3.5t9.5 16.5q10 21 33 54t60 81q30 41 40 55t19 27q3 3 3 6q0 6 -9.5 13t-14.5 7q-1 0 -1 -1h-1q-16 -14 -51 -34q-29 -17 -36 -26q-11 -14 -16 -18t-11 -6t-13 -6.5t-18 -15.5z" />
    <glyph glyph-name="ccedilla" unicode="&#xe7;" horiz-adv-x="329" 
d="M66 -285q46 63 75.5 124.5t38.5 119.5q-2 3 -7 11q-11 17 -18 17q-42 -40 -52 -54t-11 -34q-3 -31 -17.5 -69t-41.5 -77q-4 -7 -7 -15.5t-3 -16.5q0 -16 17 -16q4 1 10 1q10 1 16 9zM165 343q-10 -16 -37 -56q-61 -93 -88 -145.5t-27 -102.5q0 -3 1 -8v-8q3 -21 11 -29
t25 -9h5q5 -1 8 -1q20 0 49 6t63 20t70 38.5t66 59.5q26 29 26 38q0 3 -3 3q-4 0 -11.5 -3.5t-13.5 -8.5q-23 -20 -45.5 -32.5t-62.5 -30.5q-28 -15 -55 -15q-23 0 -38 11.5t-15 33.5q0 11 5 25l63 111q14 23 36 54.5t45.5 62t42 50t25.5 19.5t9.5 -2t8.5 -13q4 -7 4 -21
q0 -15 -7 -54q-3 -22 -5 -34q14 0 27 12.5t30 35.5q10 14 13 18q10 13 14.5 34.5t9.5 63.5q0 2 3 23q0 11 -2 16t-7 10t-10 5q-2 0 -6 -1l-6 -2q-6 -1 -19 -5t-25.5 -8.5t-25 -9.5t-17.5 -8q-13 -7 -32 -25t-40 -41t-37.5 -43.5t-24.5 -33.5z" />
    <glyph glyph-name="egrave" unicode="&#xe8;" horiz-adv-x="395" 
d="M319 615q24 -45 40 -57t45 -12q16 2 25 10.5t23 43.5v2l1 2q0 10 -10 30t-28 43q-46 49 -46 88q0 26 -4.5 35t-13.5 9q-5 0 -15 -2q-4 -1 -7 -2q-32 -5 -42.5 -12t-15.5 -19q-4 -8 -7 -13q-4 -5 -4 -9q0 -5 6 -17l2 -4q0 -2 1 -5q4 -22 6.5 -32.5t7 -20.5t12.5 -23
t24 -35zM237 306q-47 -16 -62 -16q-6 0 -6 3q0 5 10.5 15t33.5 30q31 25 42 36q16 15 30 15q15 0 15 -22q-2 -26 -19 -38.5t-44 -22.5zM281 446q-2 -1 -6 -4q-61 -37 -100 -68t-74 -80q-48 -64 -74 -120.5t-26 -111.5q0 -35 11 -68q2 -6 22 -6q8 0 20.5 1t21.5 2q3 1 4 1
q27 4 43 7.5t29 7.5q10 3 15 3q21 0 36 6.5t39 21.5q26 16 43 25q18 19 45 43q22 19 22 22q0 2 -3 2q-5 0 -16 -3q-10 -1 -19 -4t-26 -12q-46 -23 -85 -33.5t-67 -10.5q-22 0 -34 5q-2 1 -5 2q-7 2 -9.5 4.5t-2.5 9.5q0 11 8.5 38.5t28.5 79.5q38 11 61 19t41.5 17t36.5 23
t39 35q19 18 23.5 27.5t5.5 18.5q0 6 2 10t11 10q30 21 44 59q0 1 1 5v3q0 9 -5.5 14t-16.5 10q-8 4 -10 6q-7 6 -15 6q-9 0 -13 -7q-6 -8 -25 -10q-15 -2 -21 -6z" />
    <glyph glyph-name="eacute" unicode="&#xe9;" horiz-adv-x="444" 
d="M692 701q3 5 8 6.5t19 1.5q11 0 13.5 5.5t2.5 17.5q0 13 -7 13q-3 0 -13 -3q-21 -7 -36 -7q-16 0 -38 -11q-21 -10 -36 -10q-12 0 -22.5 -4t-25.5 -11q-17 -9 -32 -15t-36 -11q-53 -13 -91.5 -33t-47.5 -35q-9 -13 -13 -21.5t-4 -14.5q0 -9 20 -9q18 0 30.5 4.5
t32.5 14.5q35 19 65 30q27 8 69 27q33 15 49 18q28 9 52.5 21t40.5 26zM312 350q-28 -44 -48 -58t-39 -17q-6 -1 -8 -2q-19 -7 -26 -7q-6 0 -6 4q0 7 28 46q31 41 48 67q6 8 21 12t35 5q15 0 15 -9q0 -7 -12 -27q-5 -9 -8 -14zM342 294q2 27 7 34.5t12 8.5q5 2 5 6q0 8 7 13
l3 2q5 5 14 13q16 13 23 26.5t17 54.5q-10 8 -28 15.5t-39 7.5q-12 0 -24 -3q-17 -5 -28 -11t-23 -13q-14 -10 -22 -10q-6 0 -20.5 -10t-31 -24t-31.5 -27.5t-20 -20.5q-67 -85 -106 -154.5t-46 -136.5q-4 -15 -4 -27q0 -28 15 -41t30 -13q16 2 46 7t60 11.5t61 15.5t53 18
q26 11 44.5 25.5t37.5 32.5q16 16 22 18q9 2 17.5 7t27.5 19q18 13 23 17q13 11 21.5 23.5t8.5 19.5q0 4 -4 4q-5 0 -15 -6q-15 -8 -50 -30q-35 -21 -56.5 -33t-30.5 -13q-17 -2 -68 -23q-40 -17 -69 -28q-15 -3 -27 -3q-40 0 -40 34q0 26 22 70q9 9 23 13q9 2 15 5
q47 17 87 42.5t81 63.5z" />
    <glyph glyph-name="ecircumflex" unicode="&#xea;" horiz-adv-x="408" 
d="M344 556l6 5q24 23 27 34q4 9 21 18q19 10 25 21q5 12 11.5 18.5t14.5 11.5q7 5 8 7q2 6 5 6q8 0 14 -24q8 -39 13.5 -62t10.5 -33.5t11 -14t15 -3.5q12 3 16.5 11t4.5 29q0 18 -6 83l-1 16q-3 28 -10 44.5t-25 16.5q-18 -2 -37.5 -15t-43.5 -41q-12 -15 -19.5 -22
t-20.5 -14q-11 -3 -44 -46l-9 -12q-16 -21 -27.5 -34.5t-22 -22.5t-19.5 -15t-24 -13q-14 -6 -17 -24q0 -4 8 -4h7q6 1 9 1q22 5 37 16.5t33 32.5q18 20 29 29zM302 275q-24 -6 -42 -10t-29 -4t-11 5q0 6 20 21q4 3 6 9q1 7 5.5 13.5t15.5 15.5q22 26 50.5 47.5t41.5 26.5
q10 6 19 6q17 0 17 -17q0 -10 -7 -24q-17 -33 -41.5 -57.5t-44.5 -31.5zM419 299q53 88 53 131q0 47 -58 62q-14 0 -35 -9.5t-45.5 -25.5t-50.5 -37.5t-50 -45.5q-8 -7 -18 -18t-25 -29q-18 -20 -29.5 -32.5t-16.5 -13.5q-5 -2 -14.5 -10t-19.5 -17.5t-17 -19t-7 -14.5
q0 -3 2 -4v0q1 -1 1 -2q0 -4 -7 -14.5t-21 -29.5q-20 -26 -25 -35q-12 -18 -20 -42.5t-8 -51.5q0 -49 73 -49q16 0 65.5 16.5t109.5 42.5q37 15 74 35.5t49 33.5q4 5 10 10q7 6 11 14t8 28q0 3 -2 3q-4 0 -19 -12q-18 -14 -25 -17q-9 -3 -22.5 -10t-36.5 -20
q-33 -18 -42 -22l-5 -2q-44 -16 -70 -23.5t-45 -7.5q-13 0 -29.5 6.5t-16.5 24.5q1 23 7.5 34.5t31.5 39.5q11 13 24 28h14q9 -1 15 -1q70 0 131.5 24.5t100.5 81.5z" />
    <glyph glyph-name="edieresis" unicode="&#xeb;" horiz-adv-x="408" 
d="M287 534q5 -5 15 -7t21 -2q20 0 21 3q10 3 13 6t5 10q1 4 2 6q5 12 14 34q14 37 14 44t-14 14q-1 1 -2 1q-17 9 -31 9q-22 0 -33 -19q-11 -22 -19 -49t-8 -41q0 -7 2 -9zM562 670h-8q-3 1 -7 1q-35 0 -56 -18t-36 -58q-2 -4 -5 -17q-5 -21 -13 -43q7 -1 19 -3
q10 -1 14 -1q9 0 19 7q4 3 13 7q12 7 19.5 14t10.5 24q7 29 16 46t19 29q5 7 5 9t-10 3zM302 275q-24 -6 -42 -10t-29 -4t-11 5q0 6 20 21q4 3 6 9q1 7 5.5 13.5t15.5 15.5q22 26 50.5 47.5t41.5 26.5q10 6 19 6q17 0 17 -17q0 -10 -7 -24q-17 -33 -41.5 -57.5t-44.5 -31.5z
M419 299q53 88 53 131q0 47 -58 62q-14 0 -35 -9.5t-45.5 -25.5t-50.5 -37.5t-50 -45.5q-8 -7 -18 -18t-25 -29q-18 -20 -29.5 -32.5t-16.5 -13.5q-5 -2 -14.5 -10t-19.5 -17.5t-17 -19t-7 -14.5q0 -3 2 -4v0q1 -1 1 -2q0 -4 -7 -14.5t-21 -29.5q-20 -26 -25 -35
q-12 -18 -20 -42.5t-8 -51.5q0 -49 73 -49q16 0 65.5 16.5t109.5 42.5q37 15 74 35.5t49 33.5q4 5 10 10q7 6 11 14t8 28q0 3 -2 3q-4 0 -19 -12q-18 -14 -25 -17q-9 -3 -22.5 -10t-36.5 -20q-33 -18 -42 -22l-5 -2q-44 -16 -70 -23.5t-45 -7.5q-13 0 -29.5 6.5t-16.5 24.5
q1 23 7.5 34.5t31.5 39.5q11 13 24 28h14q9 -1 15 -1q70 0 131.5 24.5t100.5 81.5z" />
    <glyph glyph-name="ocircumflex" unicode="&#xf4;" horiz-adv-x="372" 
d="M343 556l6 5q24 23 27 34q4 9 21 18q19 10 25 21q5 12 11.5 18.5t14.5 11.5q7 5 8 7q2 6 5 6q8 0 14 -24q8 -39 13.5 -62t10.5 -33.5t11 -14t15 -3.5q12 3 16.5 11t4.5 29q0 18 -6 83l-1 16q-3 28 -10 44.5t-25 16.5q-18 -2 -37.5 -15t-43.5 -41q-12 -15 -19.5 -22
t-20.5 -14q-11 -3 -44 -46l-9 -12q-16 -21 -27.5 -34.5t-22 -22.5t-19.5 -15t-24 -13q-14 -6 -17 -24q0 -4 8 -4h7q6 1 9 1q22 5 37 16.5t33 32.5q18 20 29 29zM92 77v8q-1 6 -1 7q0 33 16 65t49 79l9 13h3h4q18 0 32.5 13t31.5 40q44 72 77 84q8 2 16 2q15 0 24.5 -7
t9.5 -15q-2 -32 -7.5 -55t-19.5 -46q-25 -47 -54 -82t-63 -67q-35 -30 -53 -40.5t-39 -11.5q-2 0 -6 -1q-7 -1 -10 -1q-16 0 -19 15zM410 303q14 41 22.5 81t8.5 70q0 21 -6 27t-30 6q-25 -1 -51.5 -10t-51.5 -24t-45.5 -33t-33.5 -35q-2 -3 -7 -10q-23 -32 -40 -53t-25 -24
q-1 3 -6 7q-3 2 -5 4q-6 -10 -19 -29q-51 -75 -76 -125.5t-25 -100.5q0 -16 3 -31q4 -13 28 -26.5t41 -13.5q13 1 40 12.5t47 27.5q82 67 144.5 139t86.5 141z" />
    <glyph glyph-name="odieresis" unicode="&#xf6;" horiz-adv-x="372" 
d="M496 528q5 0 12 8.5t28 38.5q24 33 47 65.5t59 79.5q19 24 19 28q0 2 -3 2q-2 0 -13 -3q-5 -2 -12 -4q-14 -3 -39 -17q-6 -4 -20.5 -24t-41.5 -57q-38 -53 -54 -75q-10 -18 -10 -33q3 -10 15 -10h5q5 1 8 1zM392 617q8 0 19 -4q7 -3 11 -4q40 40 94 87q16 13 22 19
q9 12 17 17t22 5q9 2 16 10t7 17q0 10 -9 12q-5 1 -6 1q-8 2 -12 2q-5 0 -13 -4l-2 -1q-38 -23 -81 -65t-85 -92zM92 77v8q-1 6 -1 7q0 33 16 65t49 79l9 13h3h4q18 0 32.5 13t31.5 40q44 72 77 84q8 2 16 2q15 0 24.5 -7t9.5 -15q-2 -32 -7.5 -55t-19.5 -46
q-25 -47 -54 -82t-63 -67q-35 -30 -53 -40.5t-39 -11.5q-2 0 -6 -1q-7 -1 -10 -1q-16 0 -19 15zM410 303q14 41 22.5 81t8.5 70q0 21 -6 27t-30 6q-25 -1 -51.5 -10t-51.5 -24t-45.5 -33t-33.5 -35q-2 -3 -7 -10q-23 -32 -40 -53t-25 -24q-1 3 -6 7q-3 2 -5 4
q-6 -10 -19 -29q-51 -75 -76 -125.5t-25 -100.5q0 -16 3 -31q4 -13 28 -26.5t41 -13.5q13 1 40 12.5t47 27.5q82 67 144.5 139t86.5 141z" />
    <glyph glyph-name="divide" unicode="&#xf7;" horiz-adv-x="642" 
d="M292 377q9 -7 29 -7q9 0 19 1.5t14 2.5q10 3 12.5 6.5t3.5 10.5v4q3 12 9 32q8 27 8 33q0 9 -17 14h-1q-19 7 -35 7q-26 0 -34 -19q-6 -15 -9.5 -33t-3.5 -32q0 -17 5 -20zM315 192q-42 -4 -62 -19t-25 -48q-1 -4 -1 -14q0 -15 -3 -30q2 0 18 1q13 0 18.5 1.5t13.5 7.5
q3 3 11 7q10 6 15.5 12.5t5.5 18.5q0 20 5 33t12 24q3 4 3 5q-1 2 -4 2l-2 -1h-5zM314 322q-58 4 -90 5.5t-50 1.5q-16 0 -24 -1t-17 -5q-12 -5 -26 -22t-25 -35l-1 -1v-2q0 -5 13.5 -8.5t42.5 -3.5q95 2 219 3q50 1 78.5 1.5t43.5 1.5t23 2.5t16 5.5q9 4 13.5 14t4.5 20
q0 8 -3 12q-3 5 -11 5q-5 0 -13 -1q-27 -2 -50 -2q-60 0 -144 9z" />
    <glyph glyph-name="oslash" unicode="&#xf8;" horiz-adv-x="300" 
 />
    <glyph glyph-name="ugrave" unicode="&#xf9;" horiz-adv-x="524" 
d="M362 750q1 -57 19.5 -117t47.5 -109q1 -1 5 -9q9 -15 15.5 -24.5t11.5 -9.5l1 1h1q21 23 21 41q0 13 -9 26q-9 14 -16 51q-5 29 -11 44v5q-1 4 -1 7q0 16 8 60q7 42 7 56q0 20 -10 20q-3 0 -7 -2q-17 -7 -43 -15q-23 -7 -31.5 -11.5t-8.5 -13.5zM317 450q0 1 1 3v4
q0 4 -2 16q-2 13 -3 23q-3 14 -11.5 19.5t-23.5 5.5h-4q-9 -1 -15.5 -3t-9.5 -8q-16 -24 -43.5 -76t-48.5 -101q-6 -13 -12 -27q-23 -49 -43 -89.5t-55 -103.5q-9 -17 -28 -49q-20 -35 -20 -43q0 -7 8 -15q16 -17 35 -17q15 0 29 11l42 27q43 29 59 39t30 17q11 5 25 30
q11 20 17 20q5 0 17.5 7t28 18.5t27.5 22.5t18 20q4 7 17 11q10 2 13 6q9 11 25.5 25t36.5 28q-4 -14 -10 -31.5t-13 -31.5q-5 -9 -10 -24q-4 -13 -8 -22l-3 -7q-16 -33 -22 -47t-14.5 -34.5t-13.5 -39t-5 -29.5q2 -5 11 -5q11 0 27.5 5t27.5 11q11 5 21.5 14t27.5 29
q-16 9 -16 21q0 10 16 53q8 19 13 34q4 13 19 31q17 21 34.5 50.5t44.5 88.5q11 24 27 55q14 28 14 33q0 6 -10 7l-15 3q-19 3 -26 3q-9 0 -15 -5q-46 -37 -137 -114q-82 -70 -120 -100q-20 -16 -33.5 -28t-33.5 -31l-12 -12l-13 -13q-17 -20 -30 -28t-49 -18q7 30 23 59.5
t42 72.5l9 14t29 46q19 30 29 46q5 7 11 11q7 5 11 12q2 3 11 15q20 28 32.5 48.5t18.5 36.5z" />
    <glyph glyph-name="udieresis" unicode="&#xfc;" horiz-adv-x="594" 
d="M377 50q3 -10 21 -22t29 -12q1 0 2 1h2q3 2 18 3q27 3 48 11t37 30q8 9 20 21q10 9 10 12t-12 7q-15 10 -23 10q-4 0 -10 -2q-12 -3 -23 -3h-5h-6h-1q-13 2 -16.5 4.5t-4.5 15.5q-2 8 -2 17q0 21 9.5 44.5t27.5 59.5q27 52 36 80q3 10 9 18q4 4 6 8q6 10 9.5 23t4.5 25
q2 13 2 20q0 27 -23 27q-8 0 -22 -3q-11 -3 -20.5 -10t-41.5 -36q-32 -28 -44 -38q-22 -19 -57 -54q-44 -46 -73 -68q-28 -23 -43 -38t-33 -34q-14 -16 -24.5 -26.5t-28.5 -25.5q-35 -35 -40 -35q-1 0 -1 1q0 5 16 29q17 26 37.5 62.5t52.5 94.5q20 37 31 57q19 38 35 63.5
t34 51.5q22 31 22 42q0 8 -8 19q-5 5 -11 5t-19 -6q-7 -3 -10 -4q-14 -3 -25.5 -11.5t-32.5 -30.5q-4 -4 -12 -9q-7 -5 -10.5 -10.5t-3.5 -17.5q0 -10 3 -27q0 -21 -24 -71.5t-82 -151.5q-24 -43 -59 -102q-25 -43 -33.5 -59.5t-8.5 -23.5q0 -6 7 -9q13 -5 26 -5q24 0 42 15
q11 13 47.5 46.5t80.5 72.5t82 71t58 47q7 5 21 23q14 17 25 27.5t24 15.5q11 1 22 13l10 10q-9 -37 -40 -102q-20 -41 -29.5 -67.5t-9.5 -53.5q0 -18 5 -35zM519 558q9 8 53 65q42 54 72 91.5t62 70.5q23 25 23 37t-18 12q-2 0 -7 -1q-3 -1 -5 -1q-14 -4 -31 -15.5
t-34.5 -27.5t-33.5 -34t-30 -35l-96 -156q0 -1 -1 -2v-2q0 -11 20 -11q15 0 26 9zM495 642q32 48 63 87.5t74 82.5q34 31 34 42q0 6 -7 9q-11 6 -21 6q-15 0 -27 -11q-20 -22 -62 -62q-53 -50 -80 -83t-34 -71q0 -10 16 -10q12 0 27 5h3q3 1 7 1t7 4z" />
    <glyph glyph-name="yacute" unicode="&#xfd;" horiz-adv-x="668" 
 />
    <glyph glyph-name="thorn" unicode="&#xfe;" horiz-adv-x="180" 
 />
    <glyph glyph-name="ydieresis" unicode="&#xff;" horiz-adv-x="735" 
 />
  </font>
</defs>
</svg>
